Loading...
Error

Как работает Вселенная. Чёрные дыры / How the Universe Works. Black Holes [2010 г., документальный, HDTVRip]

Статистика раздачи
Размер:  1,07 GB   |    Зарегистрирован:  6 лет 3 месяца   |    Скачан:  51 раз
Сидов:  1  |  0 KB/s  ]   Личеров:  0  |  0 KB/s  ]

* - сиды/пиры с внешних источников

   
 
Автор Сообщение

THE_MECHANIC Пол:Муж

22-Авг-2010 15:10



Год выпуска: 2010
Жанр: документальный
Страна: США
Режиссер: Discovery Channel

Новый сериал о нашей Вселенной! Это величайшая история о том, как из маленькой точки Вселенная превратилась в огромный космос!
Дети иногда спрашивают: Если Луна оборачивается вокруг Земли, а Земля оборачивается вокруг Солнца, тогда вокруг чего оборачивается Солнце ?
Это хороший вопрос, но астрономы задаются тем же самым вопросом...
Солнце — центральная и единственная звезда Солнечной системы, вокруг которой обращаются другие объекты этой системы: планеты и их спутники, карликовые планеты и их спутники, астероиды, метеороиды, кометы и космическая пыль.
Масса Солнца — 1.989.100.000.000.000.000.000.000.000.000 килограмм.

Объект Стрелец A* (Sagittarius A*) — сверхмассивная чёрная дыра, находящийся в центре нашей Галактики (в созвездии Стрельца) на расстоянии 26.000 световых лет от Земли. По подсчетам ученых масса этого объекта составляет 4.300.000 миллиона масс Солнца, заключена в относительно малом объёме, радиусом всего 6,25 световых часов.
Чёрная дыра— область в пространстве-времени, гравитационное притяжение которой настолько велико, что покинуть её не могут даже объекты, движущиеся со скоростью света (в том числе и кванты самого света)
10 - всем советую

HDTVRip

Продолжительность: 00:43:25
Видео: кодек: MPEG-4 AVC (H.264), размер кадра: 1280х720 (16:9), битрейт: 3 216 Kbps
Аудио: язык: Русский, Голосовой движок Acapela Alyona, кодек: MP3, битрейт: 48 kHz, 2 ch, 320 kbps avg


General
Complete name : D:\Мои документы\Мои видеозаписи\How.the.Universe.Works.Black.Holes.720p.HDTV.x264_DHD.RUS.mkv
Format : Matroska
File size : 1.07 GiB
Duration : 43mn 25s
Overall bit rate : 3 541 Kbps
Encoded date : UTC 2010-08-17 17:33:45
Writing application : mkvmerge v2.4.2 ('Oh My God') built on Jan 18 2009 17:30:28
Writing library : libebml v0.7.7 + libmatroska v0.8.1

Video
ID : 1
Format : AVC
Format/Info : Advanced Video Codec
Format profile : High@L3.1
Format settings, CABAC : Yes
Format settings, ReFrames : 4 frames
Muxing mode : Container profile=Unknown@3.1
Codec ID : V_MPEG4/ISO/AVC
Duration : 43mn 25s
Bit rate : 3 216 Kbps
Width : 1 280 pixels
Height : 720 pixels
Display aspect ratio : 16:9
Frame rate : 29.970 fps
Color space : YUV
Chroma subsampling : 4:2:0
Bit depth : 8 bits
Scan type : Progressive
Bits/(Pixel*Frame) : 0.116
Stream size : 979 MiB (89%)
Writing library : x264 core 94 r1564 a927654
Encoding settings : cabac=1 / ref=3 / deblock=1:-1:-1 / analyse=0x3:0x113 / me=umh / subme=8 / psy=1 / psy_rd=1.00:0.15 / mixed_ref=1 / me_range=16 / chroma_me=1 / trellis=1 / 8x8dct=1 / cqm=0 / deadzone=21,11 / fast_pskip=1 / chroma_qp_offset=-3 / threads=8 / sliced_threads=0 / nr=0 / decimate=1 / interlaced=0 / constrained_intra=0 / bframes=3 / b_pyramid=2 / b_adapt=2 / b_bias=0 / direct=3 / wpredb=1 / wpredp=2 / keyint=250 / keyint_min=25 / scenecut=40 / intra_refresh=0 / rc_lookahead=50 / rc=2pass / mbtree=1 / bitrate=3216 / ratetol=2.0 / qcomp=0.60 / qpmin=10 / qpmax=51 / qpstep=4 / cplxblur=20.0 / qblur=0.5 / ip_ratio=1.40 / aq=1:1.00
Language : English

Audio
ID : 2
Format : MPEG Audio
Format version : Version 1
Format profile : Layer 3
Codec ID : A_MPEG/L3
Codec ID/Hint : MP3
Duration : 43mn 25s
Bit rate mode : Constant
Bit rate : 320 Kbps
Channel(s) : 2 channels
Sampling rate : 48.0 KHz
Stream size : 99.4 MiB (9%)
Writing library : LAME3.98.4
Language : Russian



Этот торрент недоступен для скачивания без регистрации, однако доступен по публичной magnet-ссылке (источники с публичных трекеров). Перед использованием ссылки прочтите, пожалуйста Пользовательское соглашение, а также как можно дольше оставайтесь на раздаче! Для того, чтобы скачать сам торрент-файл (который видит больше источников), а также для того, чтобы поблагодарить релизера, вам необходимо зарегистрироваться. Если регистрироваться лень - вы можете также попробовать скачать релиз по нашим партнерским ссылкам ниже.

[underverse.su].t11635.torrent
Трекер: Зарегистрирован   [ 22.08.2010 15:10 ]  

Статус: проверено (by Паукан at 22.08.2010 15:39)
Поблагодарили: 4 человека
Тип торрента: публичный - доступные источники с открытых трекеров: 
Размер: 1,07 GB (занимает 0,25 DVDR, для записи нужно 1 болванка DVDR/RW)
 
 
Похожие темы
Форум Тема Автор Торрент Отв. Посл. сооб.
Discovery Как работают машины / Machines: How They Work (1-10 серий из 10) / (Том Кук) [2016 г., документальный, техника, HDTVRip] VO ARI71
20 | 9

2 | 1389

0

10.10.2016 11:49

Discovery Как работают машины / Machines: How They Work (1-10 серий из 10) / (Том Кук) [2016 г., документальный, техника, HDTVRip 720p] VO ARI71
11 | 13

2 | 1511

1

09.10.2016 12:05

Архив Как работает Вселенная / How the Universe Works [все серии] (Discovery Science) [2011 г., научно-популярный; HDTVRip] THE_MECHANIC
0 | 1

13 | 1837

9

25.04.2013 07:41

THE_MECHANIC Пол:Муж

22-Авг-2010 16:25

Только сейчас посмотрел...потрясающе, нет слов...
Смотреть всем! :good:
P.S. если к вам однажды постучится человек, и скажет, что он ваш пра-пра-пра-пра-пра-правнук, не захлопывайте перед ним дверь :shock: :shock: :shock:

serleon07 

04-Сен-2010 04:23

Сейчас посмотрим!

1qaz1900 

04-Сен-2010 13:22

:good:

1qaz1900 

20-Сен-2010 17:36

:good:

Speed_0 

20-Янв-2011 19:30

:) Спасибо!!!!!!!!!

Xarbold Пол:Муж

23-Янв-2011 03:42

Благодарю. Очень познавательное видео.

QWELL 

02-Июл-2011 07:54

СПАСИБО :Yahoo!:

forge1917 Пол:Муж

07-Сен-2011 20:02

:) Посмотрим!!!

eduard.kastelli 

18-Окт-2011 07:49

клева

sep09 Пол:Муж

17-Сен-2012 14:36

нет раздающих,где вы?

gorbun1 

01-Сен-2013 08:58

THE_MECHANIC писал(а):

Как работает Вселенная. Чёрные дыры / How the Universe Works. Black Holes [2010 г., документальный, HDTVRip]
THE_MECHANIC
ГДЕ РАЗДАЮЩИЕ?

8ad_R060d Пол:Муж

01-Сен-2013 15:44

gorbun1 писал(а):

THE_MECHANIC писал(а):

Как работает Вселенная. Чёрные дыры / How the Universe Works. Black Holes [2010 г., документальный, HDTVRip]
THE_MECHANIC
ГДЕ РАЗДАЮЩИЕ?
Скачайте рабочую раздачу: http://underverse.su/viewtopic.php?p=148420#148420

добавлено спустя 2 минуты 35 секунд:

В ней все эпизоды сразу..

Яндекс.Метрика powered by Sphinx


В Н И М А Н И Е
Сайт не распространяет и не хранит электронные версии произведений, а лишь бесплатно и без коммерческой выгоды (не требуя взамен платы,
SMS и т.д.) предоставляет доступ к создаваемому пользователями каталогу ссылок на торрент-файлы, которые содержат только списки хеш-сумм.
Убедительная просьба с жалобами обращаться напрямую к пользователю, разместившему торрент файл.

Вверх