Loading...
Error

Шанхай / Shanghai (Микаэль Хафстрем) [2010 г., триллер, мелодрама, драма, детектив, ..., DVDRip]

Статистика раздачи
Размер:  1,37 GB   |    Зарегистрирован:  6 лет 3 месяца   |    Скачан:  8 раз

Полного источника не было: 2 года 5 месяцев

Сидов:  0  |  0 KB/s  ]   Личеров:  0  |  0 KB/s  ]

* - сиды/пиры с внешних источников

   
 
Автор Сообщение

THE_MECHANIC Пол:Муж

20-Авг-2010 09:37



Год выпуска: 2010
Жанр: триллер, мелодрама, драма, детектив, ...
Страна: США
Режиссер: Микаэль Хафстрем
Джон Кьюсак, Юнь-Фат Чоу, Кен Ватанабе, Гун Ли, Джеффри Дин Морган, Дэвид Морс, Франка Потенте, Хью Бонневилль, Ринко Кикучи, Джемма Чан
Историческая драма, рассказывающая об американце, который приезжает в оккупированный японцами Шанхай за четыре месяца до бомбежки Перл Харбора и узнает об убийстве друга. Расследуя его, парень успевает влюбиться и раскрыть правительственную тайну, которую тщательно прячут.

  • Мировая премьера: 10 июня 2010


8 - мне понравилось

DVDRip

Продолжительность: 01:43:04
Видео: кодек: XviD, размер кадра: 720x304, битрейт: 1446 Кбит/с,
Аудио: Русский (Профессиональный Двухголосый), кодек: AC3 (True-HD) 5.1, битрейт: 448 Кбит/с


General
Complete name : D:\Мои документы\Мои видеозаписи\Shanhaj.2010.XviD.DVDRip.avi
Format : AVI
Format/Info : Audio Video Interleave
File size : 1.37 GiB
Duration : 1h 43mn
Overall bit rate : 1 905 Kbps
Writing application : VirtualDubMod 1.5.10.2 (build 2540/release)
Writing library : VirtualDubMod build 2540/release

Video
ID : 0
Format : MPEG-4 Visual
Format profile : Advanced Simple@L5
Format settings, BVOP : Yes
Format settings, QPel : No
Format settings, GMC : No warppoints
Format settings, Matrix : Default (H.263)
Codec ID : XVID
Codec ID/Hint : XviD
Duration : 1h 43mn
Bit rate : 1 447 Kbps
Width : 720 pixels
Height : 304 pixels
Display aspect ratio : 2.35:1
Frame rate : 25.000 fps
Color space : YUV
Chroma subsampling : 4:2:0
Bit depth : 8 bits
Scan type : Progressive
Bits/(Pixel*Frame) : 0.264
Stream size : 1.04 GiB (76%)
Writing library : XviD 1.2.1 (UTC 2008-12-04)

Audio
ID : 1
Format : AC-3
Format/Info : Audio Coding 3
Mode extension : CM (complete main)
Codec ID : 2000
Duration : 1h 43mn
Bit rate mode : Constant
Bit rate : 448 Kbps
Channel(s) : 6 channels
Channel positions : Front: L C R, Side: L R, LFE
Sampling rate : 48.0 KHz
Bit depth : 16 bits
Stream size : 330 MiB (24%)
Alignment : Split accross interleaves
Interleave, duration : 40 ms (1.00 video frame)
Interleave, preload duration : 500 ms



Этот торрент недоступен для скачивания без регистрации, однако доступен по публичной magnet-ссылке (источники с публичных трекеров). Перед использованием ссылки прочтите, пожалуйста Пользовательское соглашение, а также как можно дольше оставайтесь на раздаче! Для того, чтобы скачать сам торрент-файл (который видит больше источников), а также для того, чтобы поблагодарить релизера, вам необходимо зарегистрироваться. Если регистрироваться лень - вы можете также попробовать скачать релиз по нашим партнерским ссылкам ниже.

[underverse.su].t11609.torrent
Трекер: Зарегистрирован   [ 20.08.2010 09:37 ]  

Статус: проверено (by puzzikat at 20.08.2010 20:30)
Поблагодарили: пока никто не поблагодарил...
Тип торрента: публичный - доступные источники с открытых трекеров: 
Размер: 1,37 GB (занимает 0,31 DVDR, для записи нужно 1 болванка DVDR/RW)
 
 

Яндекс.Метрика powered by Sphinx


В Н И М А Н И Е
Сайт не распространяет и не хранит электронные версии произведений, а лишь бесплатно и без коммерческой выгоды (не требуя взамен платы,
SMS и т.д.) предоставляет доступ к создаваемому пользователями каталогу ссылок на торрент-файлы, которые содержат только списки хеш-сумм.
Убедительная просьба с жалобами обращаться напрямую к пользователю, разместившему торрент файл.

Вверх