Loading...
Error

Ложь во имя науки [2010 г., Документальный, DVDRip]

Статистика раздачи
Размер:  702 MB   |    Зарегистрирован:  6 лет 3 месяца   |    Скачан:  55 раз

Полного источника не было: 1 год 1 месяц

Сидов:  0  |  0 KB/s  ]   Личеров:  0  |  0 KB/s  ]

* - сиды/пиры с внешних источников

   
 
Автор Сообщение

TuFED Пол:Муж

18-Авг-2010 01:46

Ложь во имя науки


Год выпуска: 2010
Жанр: Документальный
Страна: Россия
Режиссер: А. Иванов

Сюжет фильма: Фильм рассказывает о фактах, которые учёные, как они себя называют, умалчивают во имя той науки в которую они верят. Потому что если они о об этих фактах заговорят, то вся официальная теория происхождения жизни на Земле разлетится в пух и прах.
Особо новых фактов мы не предоставляем, мы сложили все имеющиеся факты и смогли вооплотить это в теорию...
Мы рассказываем почему нашей планете не может быть миллиардность лет, о древней расе людей, которая была развита лучше нас. Рассказываем о найденных скелетах огромных размеров, как людей так и животных, а так же рассказывем обо всех фальсификациях используемых при доказательстве эволюции.


Качество видео: DVDRip

Продолжительность: 00:53:14
Видео: кодек: XviD, размер кадра: 720x416, битрейт: 1705 kbps
Аудио: язык: русский, перевод: оригинал, кодек: MP3, битрейт: 128 kbps

Код:

General
Complete name                    : D:\Video\Documentaries\Ложь во имя науки.avi
Format                           : AVI
Format/Info                      : Audio Video Interleave
File size                        : 702 MiB
Duration                         : 53mn 14s
Overall bit rate                 : 1 843 Kbps
Writing library                  : VirtualDub build 30009/release

Video
ID                               : 0
Format                           : MPEG-4 Visual
Format profile                   : Advanced Simple@L5
Format settings, BVOP            : Yes
Format settings, QPel            : No
Format settings, GMC             : No warppoints
Format settings, Matrix          : Default (H.263)
Muxing mode                      : Packed bitstream
Codec ID                         : XVID
Codec ID/Hint                    : XviD
Duration                         : 53mn 14s
Bit rate                         : 1 705 Kbps
Width                            : 720 pixels
Height                           : 416 pixels
Display aspect ratio             : 16:9
Frame rate                       : 25.000 fps
Color space                      : YUV
Chroma subsampling               : 4:2:0
Bit depth                        : 8 bits
Scan type                        : Progressive
Bits/(Pixel*Frame)               : 0.228
Stream size                      : 649 MiB (93%)
Writing library                  : XviD 1.1.2 (UTC 2006-11-01)

Audio
ID                               : 1
Format                           : MPEG Audio
Format version                   : Version 1
Format profile                   : Layer 3
Mode                             : Joint stereo
Mode extension                   : MS Stereo
Codec ID                         : 55
Codec ID/Hint                    : MP3
Duration                         : 53mn 14s
Bit rate mode                    : Constant
Bit rate                         : 128 Kbps
Channel(s)                       : 2 channels
Sampling rate                    : 48.0 KHz
Stream size                      : 48.7 MiB (7%)
Alignment                        : Split accross interleaves
Interleave, duration             : 40 ms (1.00 video frame)
Interleave, preload duration     : 500 ms
Writing library                  : LAMEЄЄ


Этот торрент недоступен для скачивания без регистрации, однако доступен по публичной magnet-ссылке (источники с публичных трекеров). Перед использованием ссылки прочтите, пожалуйста Пользовательское соглашение, а также как можно дольше оставайтесь на раздаче! Для того, чтобы скачать сам торрент-файл (который видит больше источников), а также для того, чтобы поблагодарить релизера, вам необходимо зарегистрироваться. Если регистрироваться лень - вы можете также попробовать скачать релиз по нашим партнерским ссылкам ниже.

[underverse.su].t11554.torrent
Трекер: Зарегистрирован   [ 18.08.2010 01:46 ]  

Статус: проверено (by Паукан at 18.08.2010 06:56)
Поблагодарили: 4 человека
Тип торрента: публичный - доступные источники с открытых трекеров: 
Размер: 702 MB (занимает 0,16 DVDR, для записи нужно 1 болванка DVDR/RW)
Ложь во имя науки
 
 


Последний раз редактировалось: TuFED (18.08.2010 09:47), всего редактировалось 2 раз(а)

Bratok Пол:Муж

18-Авг-2010 03:30

На постере реклама стороннего ресурса!

TuFED Пол:Муж

18-Авг-2010 04:34

Bratok
исправил

Яндекс.Метрика powered by Sphinx


В Н И М А Н И Е
Сайт не распространяет и не хранит электронные версии произведений, а лишь бесплатно и без коммерческой выгоды (не требуя взамен платы,
SMS и т.д.) предоставляет доступ к создаваемому пользователями каталогу ссылок на торрент-файлы, которые содержат только списки хеш-сумм.
Убедительная просьба с жалобами обращаться напрямую к пользователю, разместившему торрент файл.

Вверх