Loading...
Error

Бездна / The Deep (Питер Йейтс / Peter Yates) [1977 г., ужасы, триллер, приключения, детектив, BDRip]

Статистика раздачи
Размер:  2,92 GB   |    Зарегистрирован:  6 лет 6 месяцев   |    Скачан:  1 раз

Полного источника не было: 7 месяцев

Сидов:  0  |  0 KB/s  ]   Личеров:  0  |  0 KB/s  ]

* - сиды/пиры с внешних источников

   
 
Автор Сообщение

GUree Пол:Муж

06-Июн-2010 00:16

Бездна / The Deep


Год выпуска: 1977
Жанр: ужасы, триллер, приключения, детектив
Страна: США
Режиссер: Питер Йейтс / Peter Yates
В ролях: Роберт Шоу / Robert Shaw, Жаклин Биссет / Jacqueline Bisset, Ник Нолти / Nick Nolte, Луис Госсетт-младший / Louis Gossett, Jr., Илай Уоллак / Eli Wallach, Роберт Тессье / Robert Tessier

Сюжет фильма: Супруги Гейл и Дэвид проводят отпуск на экзотическом бермудском острове. Во время подводной охоты им достается роскошная и опасная добыча: они находят затонувший испанский корабль, который набит несметными сокровищами.

Искатели приключений и не подозревают, с чем им предстоит столкнуться в погоне за кладом. В конце концов, они оказываются на краю бездны, где любое неверное движение может стоить жизни.


  • Мировая премьера: 17 июня 1977




Личная оценка: 10 - всем советую

Качество видео: BDRip

Продолжительность: 02:04:30
Видео: кодек: x264, формат: mkv, размер кадра: 1024x424, битрейт: 2140 kbps
Аудио #1: язык: русский, перевод: дублированный (дубляж), кодек: AC3 2.0, битрейт: 192 kbps
Аудио #2: язык: русский, перевод: многоголосый закадровый, кодек: AC3 2.0, битрейт: 192 kbps
Аудио #3: язык: русский, перевод: одноголосный закадровый (Ю. Живов), кодек: AC3 5.1, битрейт: 384 kbps
Аудио #4: язык: английский, перевод: оригинал, кодек: AC3 5.1, битрейт: 384 kbps
Субтитры: тип: вшитые отключаемые, язык: английский, формат: S_TEXT/UTF8

Семпл 1 на multi-up
Семпл 2 на multi-up

Релиз группы:








General
Complete name : The_Deep.1977.BDRip.AVC.mkv
Format : Matroska
File size : 2.92 GiB
Duration : 2h 4mn
Overall bit rate : 3 359 Kbps
Movie name : -=GUree=-
Encoded date : UTC 2010-06-05 16:11:08
Writing application : mkvmerge v3.4.0 ('Rapunzel') сборка от May 15 2010 09:38:20
Writing library : libebml v0.8.0 + libmatroska v0.9.0

Video
ID : 1
Format : AVC
Format/Info : Advanced Video Codec
Format profile : High@L4.1
Format settings, CABAC : Yes
Format settings, ReFrames : 8 frames
Muxing mode : Container profile=Unknown@4.1
Codec ID : V_MPEG4/ISO/AVC
Duration : 2h 4mn
Bit rate : 2 204 Kbps
Width : 1 024 pixels
Height : 424 pixels
Display aspect ratio : 2.40:1
Frame rate : 23.976 fps
Color space : YUV
Chroma subsampling : 4:2:0
Bit depth : 8 bits
Scan type : Progressive
Bits/(Pixel*Frame) : 0.212
Stream size : 1.86 GiB (64%)
Writing library : x264 core 92 r1510 33d382a
Encoding settings : cabac=1 / ref=8 / deblock=1:-2:-1 / analyse=0x3:0x113 / me=tesa / subme=10 / psy=1 / psy_rd=1.00:0.40 / mixed_ref=1 / me_range=32 / chroma_me=1 / trellis=2 / 8x8dct=1 / cqm=0 / deadzone=21,11 / fast_pskip=0 / chroma_qp_offset=-4 / threads=6 / sliced_threads=0 / nr=0 / decimate=0 / interlaced=0 / constrained_intra=0 / bframes=6 / b_pyramid=2 / b_adapt=2 / b_bias=0 / direct=3 / wpredb=1 / wpredp=2 / keyint=250 / keyint_min=25 / scenecut=40 / intra_refresh=0 / rc_lookahead=60 / rc=2pass / mbtree=1 / bitrate=2204 / ratetol=1.0 / qcomp=0.70 / qpmin=10 / qpmax=51 / qpstep=4 / cplxblur=20.0 / qblur=0.5 / vbv_maxrate=50000 / vbv_bufsize=50000 / ip_ratio=1.40 / aq=1:0.90 / nal_hrd=none

Audio #1
ID : 2
Format : AC-3
Format/Info : Audio Coding 3
Format profile : Dolby Digital
Mode extension : CM (complete main)
Codec ID : A_AC3
Duration : 2h 4mn
Bit rate mode : Constant
Bit rate : 192 Kbps
Channel(s) : 2 channels
Channel positions : Front: L R
Sampling rate : 48.0 KHz
Stream size : 171 MiB (6%)
Title : AC3 2.0 192Kb/s (Dub)
Language : Russian

Audio #2
ID : 3
Format : AC-3
Format/Info : Audio Coding 3
Format profile : Dolby Digital
Mode extension : CM (complete main)
Codec ID : A_AC3
Duration : 2h 4mn
Bit rate mode : Constant
Bit rate : 192 Kbps
Channel(s) : 2 channels
Channel positions : Front: L R
Sampling rate : 48.0 KHz
Stream size : 171 MiB (6%)
Title : AC3 2.0 192Kb/s (MVO)
Language : Russian

Audio #3
ID : 4
Format : AC-3
Format/Info : Audio Coding 3
Mode extension : CM (complete main)
Codec ID : A_AC3
Duration : 2h 4mn
Bit rate mode : Constant
Bit rate : 384 Kbps
Channel(s) : 6 channels
Channel positions : Front: L C R, Side: L R, LFE
Sampling rate : 48.0 KHz
Stream size : 342 MiB (11%)
Title : AC3 5.1 384Kb/s (Jivof)
Language : Russian

Audio #4
ID : 5
Format : AC-3
Format/Info : Audio Coding 3
Mode extension : CM (complete main)
Codec ID : A_AC3
Duration : 2h 4mn
Bit rate mode : Constant
Bit rate : 384 Kbps
Channel(s) : 6 channels
Channel positions : Front: L C R, Side: L R, LFE
Sampling rate : 48.0 KHz
Stream size : 342 MiB (11%)
Title : AC3 5.1 384Kb/s
Language : English

Text
ID : 6
Format : UTF-8
Codec ID : S_TEXT/UTF8
Codec ID/Info : UTF-8 Plain Text
Language : English

Этот торрент недоступен для скачивания без регистрации, однако доступен по публичной magnet-ссылке (источники с публичных трекеров). Перед использованием ссылки прочтите, пожалуйста Пользовательское соглашение, а также как можно дольше оставайтесь на раздаче! Для того, чтобы скачать сам торрент-файл (который видит больше источников), а также для того, чтобы поблагодарить релизера, вам необходимо зарегистрироваться. Если регистрироваться лень - вы можете также попробовать скачать релиз по нашим партнерским ссылкам ниже.

[underverse.su].t10501.torrent
Трекер: Зарегистрирован   [ 06.06.2010 00:16 ]  

Статус: проверено (by GUree at 06.06.2010 00:17)
Поблагодарили: пока никто не поблагодарил...
Тип торрента: публичный - доступные источники с открытых трекеров: 
Размер: 2,92 GB (занимает 0,67 DVDR, для записи нужно 1 болванка DVDR/RW)
 
 

Яндекс.Метрика powered by Sphinx


В Н И М А Н И Е
Сайт не распространяет и не хранит электронные версии произведений, а лишь бесплатно и без коммерческой выгоды (не требуя взамен платы,
SMS и т.д.) предоставляет доступ к создаваемому пользователями каталогу ссылок на торрент-файлы, которые содержат только списки хеш-сумм.
Убедительная просьба с жалобами обращаться напрямую к пользователю, разместившему торрент файл.

Вверх