Loading...
Error

Свидание вслепую / Blind Date (Блейк Эдвардс / Blake Edwards) [1987 г., комедия, мелодрама, HDTVRip]

Статистика раздачи
Размер:  2,18 GB   |    Зарегистрирован:  6 лет 6 месяцев   |    Скачан:  4 раза

Полного источника не было: 10 месяцев

Сидов:  0  |  0 KB/s  ]   Личеров:  0  |  0 KB/s  ]

* - сиды/пиры с внешних источников

   
 
Автор Сообщение

GUree Пол:Муж

29-Май-2010 21:40

Свидание вслепую / Blind Date


Год выпуска: 1987
Жанр: комедия, мелодрама
Страна: США
Режиссер: Блейк Эдвардс / Blake Edwards
В ролях: Ким Бэйсингер, Брюс Уиллис, Джон Ларрокетт, Уильям Дэниэлс, Фил Хартмэн, Стефани Фэрэси

Сюжет фильма: Уолтер Дэвис — трудоголик, и вполне естественно, что все свое внимание он уделяет работе, а не личной жизни или внешности. Для очень важной деловой встречи в ресторане с новым партнером из Японии, Уолтеру потребовалась спутница.

Его брат посоветовал взять с собой очаровательную Надю, кузину его жены. Но есть одно но: Наде нельзя пить… совсем! К сожалению, это предупреждение Уолтер пропустил мимо ушей.


  • Мировая премьера: 24 марта 1987




Личная оценка: 10 - всем советую

Качество видео: HDTVRip

Продолжительность: 01:30:55
Видео: кодек: x264, формат: mkv, размер кадра: 1024x432, битрейт: 2217 kbps
Аудио #1: язык: русский, перевод: многоголосый закадровый (R5), кодек: AC3 5.1, битрейт: 384 kbps
Аудио #2: язык: русский, перевод: многоголосый закадровый (НТВ+), кодек: AC3 2.0, битрейт: 192 kbps
Аудио #3: язык: русский, перевод: одноголосный закадровый (А. Михалёв), кодек: AC3 2.0, битрейт: 192 kbps
Аудио #4: язык: английский, перевод: оригинал, кодек: AC3 5.1, битрейт: 384 kbps
Субтитры #1: тип: вшитые отключаемые, язык: русский, формат: S_TEXT/UTF8
Субтитры #2: тип: вшитые отключаемые, язык: английский, формат: S_TEXT/UTF8

Семпл 1 на multi-up
Семпл 2 на multi-up

Релиз группы:








General
Complete name : Blind_Date.1987.HDTVRip.AVC.mkv
Format : Matroska
File size : 2.18 GiB
Duration : 1h 30mn
Overall bit rate : 3 438 Kbps
Movie name : -=GUree=-
Encoded date : UTC 2010-05-28 08:53:18
Writing application : mkvmerge v3.3.0 ('Language') строится на Apr 12 2010 10:07:49
Writing library : libebml v0.8.0 + libmatroska v0.9.0

Video
ID : 1
Format : AVC
Format/Info : Advanced Video Codec
Format profile : High@L4.1
Format settings, CABAC : Yes
Format settings, ReFrames : 8 frames
Muxing mode : Container profile=Unknown@4.1
Codec ID : V_MPEG4/ISO/AVC
Duration : 1h 30mn
Bit rate : 2 284 Kbps
Width : 1 024 pixels
Height : 432 pixels
Display aspect ratio : 2.35:1
Frame rate : 25.000 fps
Color space : YUV
Chroma subsampling : 4:2:0
Bit depth : 8 bits
Scan type : Progressive
Bits/(Pixel*Frame) : 0.207
Stream size : 1.41 GiB (65%)
Writing library : x264 core 92 r1510 33d382a
Encoding settings : cabac=1 / ref=8 / deblock=1:-2:-1 / analyse=0x3:0x113 / me=tesa / subme=10 / psy=1 / psy_rd=1.00:0.40 / mixed_ref=1 / me_range=32 / chroma_me=1 / trellis=2 / 8x8dct=1 / cqm=0 / deadzone=21,11 / fast_pskip=0 / chroma_qp_offset=-4 / threads=6 / sliced_threads=0 / nr=0 / decimate=0 / interlaced=0 / constrained_intra=0 / bframes=6 / b_pyramid=2 / b_adapt=2 / b_bias=0 / direct=3 / wpredb=1 / wpredp=2 / keyint=250 / keyint_min=25 / scenecut=40 / intra_refresh=0 / rc_lookahead=60 / rc=2pass / mbtree=1 / bitrate=2284 / ratetol=1.0 / qcomp=0.70 / qpmin=10 / qpmax=51 / qpstep=4 / cplxblur=20.0 / qblur=0.5 / vbv_maxrate=50000 / vbv_bufsize=50000 / ip_ratio=1.40 / aq=1:0.90 / nal_hrd=none

Audio #1
ID : 2
Format : AC-3
Format/Info : Audio Coding 3
Mode extension : CM (complete main)
Codec ID : A_AC3
Duration : 1h 30mn
Bit rate mode : Constant
Bit rate : 384 Kbps
Channel(s) : 6 channels
Channel positions : Front: L C R, Side: L R, LFE
Sampling rate : 48.0 KHz
Video delay : 7ms
Stream size : 250 MiB (11%)
Title : AC3 5.1 384Kb/s (R5)
Language : Russian

Audio #2
ID : 3
Format : AC-3
Format/Info : Audio Coding 3
Mode extension : CM (complete main)
Codec ID : A_AC3
Duration : 1h 30mn
Bit rate mode : Constant
Bit rate : 192 Kbps
Channel(s) : 2 channels
Channel positions : Front: L R
Sampling rate : 48.0 KHz
Video delay : 7ms
Stream size : 125 MiB (6%)
Title : AC3 2.0 192Kb/s (HTB+)
Language : Russian

Audio #3
ID : 4
Format : AC-3
Format/Info : Audio Coding 3
Mode extension : CM (complete main)
Codec ID : A_AC3
Duration : 1h 30mn
Bit rate mode : Constant
Bit rate : 192 Kbps
Channel(s) : 2 channels
Channel positions : Front: L R
Sampling rate : 48.0 KHz
Video delay : 7ms
Stream size : 125 MiB (6%)
Title : AC3 2.0 192Kb/s (Михалев)
Language : Russian

Audio #4
ID : 5
Format : AC-3
Format/Info : Audio Coding 3
Mode extension : CM (complete main)
Codec ID : A_AC3
Duration : 1h 30mn
Bit rate mode : Constant
Bit rate : 384 Kbps
Channel(s) : 6 channels
Channel positions : Front: L C R, Side: L R, LFE
Sampling rate : 48.0 KHz
Video delay : 7ms
Stream size : 250 MiB (11%)
Title : AC3 5.1 384Kb/s
Language : English

Text #1
ID : 6
Format : UTF-8
Codec ID : S_TEXT/UTF8
Codec ID/Info : UTF-8 Plain Text
Language : Russian

Text #2
ID : 7
Format : UTF-8
Codec ID : S_TEXT/UTF8
Codec ID/Info : UTF-8 Plain Text
Language : English

Этот торрент недоступен для скачивания без регистрации, однако доступен по публичной magnet-ссылке (источники с публичных трекеров). Перед использованием ссылки прочтите, пожалуйста Пользовательское соглашение, а также как можно дольше оставайтесь на раздаче! Для того, чтобы скачать сам торрент-файл (который видит больше источников), а также для того, чтобы поблагодарить релизера, вам необходимо зарегистрироваться. Если регистрироваться лень - вы можете также попробовать скачать релиз по нашим партнерским ссылкам ниже.

[underverse.su].t10385.torrent
Трекер: Зарегистрирован   [ 29.05.2010 21:40 ]  

Статус: проверено (by GUree at 29.05.2010 21:50)
Поблагодарили: пока никто не поблагодарил...
Тип торрента: публичный - доступные источники с открытых трекеров: 
Размер: 2,18 GB (занимает 1/2 DVDR, для записи нужно 1 болванка DVDR/RW)
 
 

Яндекс.Метрика powered by Sphinx


В Н И М А Н И Е
Сайт не распространяет и не хранит электронные версии произведений, а лишь бесплатно и без коммерческой выгоды (не требуя взамен платы,
SMS и т.д.) предоставляет доступ к создаваемому пользователями каталогу ссылок на торрент-файлы, которые содержат только списки хеш-сумм.
Убедительная просьба с жалобами обращаться напрямую к пользователю, разместившему торрент файл.

Вверх