Loading...
Error

Это развод! / Настоящий лунный свет / Serious Moonlight (Шерил Хайнс / Sheryl Hines) [2009 г., комедия, мелодрама, криминальный, BDRip]

Статистика раздачи
Размер:  2,18 GB   |    Зарегистрирован:  6 лет 6 месяцев   |    Скачан:  12 раз

Полного источника не было: 9 месяцев

Сидов:  0  |  0 KB/s  ]   Личеров:  0  |  0 KB/s  ]

* - сиды/пиры с внешних источников

   
 
Автор Сообщение

GUree Пол:Муж

25-Май-2010 14:37

Это развод! / Настоящий лунный свет / Serious Moonlight


Год выпуска: 2009
Жанр: комедия, мелодрама, криминальный
Страна: США
Режиссер: Шерил Хайнс / Sheryl Hines
В ролях: Мег Райан, Тимоти Хаттон, Кристен Белл, Джастин Лонг, Энди Острой, Натан Дин, Кимберли Петерсон, Дерек Картер, Билл Паркс

Сюжет фильма: Узнав, что муж полюбил другую и улетает в Париж, Луиза решила его не отпускать… связав мужа скотчем. Попытки вспомнить всё хорошее, что было в их совместной жизни, не увенчались успехом. Стараясь выбраться из заключения, неверный супруг привлёк внимание газонокосильщика. Вот только изменник грабителю не товарищ. Вскоре Луиза с мужем и его любовницей окажутся в заложниках у целой банды…

  • Мировая премьера: 25 апреля 2009
  • Российская премьера: 29 апреля 2010, «Союз»




Личная оценка: 9 - торкнуло

Качество видео: BDRip

Продолжительность: 01:24:02
Видео: кодек: x264, формат: mkv, размер кадра: 1024x576, битрейт: 2873 kbps
Аудио #1: язык: русский, перевод: двухголосый закадровый, кодек: AC3 5.1, битрейт: 384 kbps
Аудио #2: язык: английский, перевод: оригинал, кодек: AC3 5.1, битрейт: 384 kbps
Субтитры #1: тип: вшитые отключаемые, язык: английский, формат: S_TEXT/UTF8
Субтитры #2: тип: вшитые отключаемые, язык: русский, формат: S_TEXT/UTF8

Семпл 1 на multi-up
Семпл 2 на multi-up
Скриншоты сравнения с Оригиналом

Релиз группы:








General
Complete name : Serious_Moonlight.2009.BDRip.AVC.mkv
Format : Matroska
File size : 2.18 GiB
Duration : 1h 24mn
Overall bit rate : 3 715 Kbps
Movie name : -=GUree=-
Encoded date : UTC 2010-05-24 23:27:27
Writing application : mkvmerge v3.3.0 ('Language') строится на Apr 12 2010 10:07:49
Writing library : libebml v0.8.0 + libmatroska v0.9.0

Video
ID : 1
Format : AVC
Format/Info : Advanced Video Codec
Format profile : High@L4.1
Format settings, CABAC : Yes
Format settings, ReFrames : 8 frames
Muxing mode : Container profile=Unknown@4.1
Codec ID : V_MPEG4/ISO/AVC
Duration : 1h 24mn
Bit rate : 2 947 Kbps
Width : 1 024 pixels
Height : 576 pixels
Display aspect ratio : 16:9
Frame rate : 23.976 fps
Color space : YUV
Chroma subsampling : 4:2:0
Bit depth : 8 bits
Scan type : Progressive
Bits/(Pixel*Frame) : 0.208
Stream size : 1.69 GiB (77%)
Writing library : x264 core 92 r1510 33d382a
Encoding settings : cabac=1 / ref=8 / deblock=1:-2:-1 / analyse=0x3:0x113 / me=tesa / subme=10 / psy=1 / psy_rd=1.00:0.40 / mixed_ref=1 / me_range=32 / chroma_me=1 / trellis=2 / 8x8dct=1 / cqm=0 / deadzone=21,11 / fast_pskip=0 / chroma_qp_offset=-4 / threads=6 / sliced_threads=0 / nr=0 / decimate=0 / interlaced=0 / constrained_intra=0 / bframes=6 / b_pyramid=2 / b_adapt=2 / b_bias=0 / direct=3 / wpredb=1 / wpredp=2 / keyint=250 / keyint_min=25 / scenecut=40 / intra_refresh=0 / rc_lookahead=60 / rc=2pass / mbtree=1 / bitrate=2947 / ratetol=1.0 / qcomp=0.70 / qpmin=10 / qpmax=51 / qpstep=4 / cplxblur=20.0 / qblur=0.5 / vbv_maxrate=50000 / vbv_bufsize=50000 / ip_ratio=1.40 / aq=1:0.90 / nal_hrd=none
Language : English

Audio #1
ID : 2
Format : AC-3
Format/Info : Audio Coding 3
Mode extension : CM (complete main)
Codec ID : A_AC3
Duration : 1h 24mn
Bit rate mode : Constant
Bit rate : 384 Kbps
Channel(s) : 6 channels
Channel positions : Front: L C R, Side: L R, LFE
Sampling rate : 48.0 KHz
Stream size : 231 MiB (10%)
Title : AC3 5.1 384 kbps
Language : Russian

Audio #2
ID : 3
Format : AC-3
Format/Info : Audio Coding 3
Mode extension : CM (complete main)
Codec ID : A_AC3
Duration : 1h 24mn
Bit rate mode : Constant
Bit rate : 384 Kbps
Channel(s) : 6 channels
Channel positions : Front: L C R, Side: L R, LFE
Sampling rate : 48.0 KHz
Stream size : 231 MiB (10%)
Title : AC3 5.1 384 kbps
Language : English

Text #1
ID : 4
Format : UTF-8
Codec ID : S_TEXT/UTF8
Codec ID/Info : UTF-8 Plain Text
Language : English

Text #2
ID : 5
Format : UTF-8
Codec ID : S_TEXT/UTF8
Codec ID/Info : UTF-8 Plain Text
Language : Russian

Этот торрент недоступен для скачивания без регистрации, однако доступен по публичной magnet-ссылке (источники с публичных трекеров). Перед использованием ссылки прочтите, пожалуйста Пользовательское соглашение, а также как можно дольше оставайтесь на раздаче! Для того, чтобы скачать сам торрент-файл (который видит больше источников), а также для того, чтобы поблагодарить релизера, вам необходимо зарегистрироваться. Если регистрироваться лень - вы можете также попробовать скачать релиз по нашим партнерским ссылкам ниже.

[underverse.su].t10297.torrent
Трекер: Зарегистрирован   [ 25.05.2010 14:37 ]  

Статус: проверено (by GUree at 25.05.2010 14:45)
Поблагодарили: пока никто не поблагодарил...
Тип торрента: публичный - доступные источники с открытых трекеров: 
Размер: 2,18 GB (занимает 1/2 DVDR, для записи нужно 1 болванка DVDR/RW)
 
 
Похожие темы
Форум Тема Автор Торрент Отв. Посл. сооб.
Зарубежное кино [DVDRip, Low-Res HDRip, и т.д.] Это развод! / Настоящий лунный свет / Serious Moonlight (Шерил Хайнс) [2008 г., Мелодрама, Комедия, Криминал, BDRip] MVO (RUS) Ведьмочка
2 | 0

0 | 515

12

21.08.2014 15:04

Зарубежное кино [DVDRip, Low-Res HDRip, и т.д.] Это развод! / Настоящий лунный свет / Serious Moonlight (Шерил Хайнс) [2008 г., Мелодрама, Комедия, Криминал, BDRip-AVC] MVO (RUS) + Original (ENG) + Subs (ENG) Ведьмочка
5 | 0

0 | 656

11

21.08.2014 15:13

Архив Это развод! / Serious Moonlight (Шерил Хайнс) [2009 г., комедия, мелодрама, криминал, DVD-5] andrej-ku
0 | 0

1 | 590

0

17.02.2011 14:46

Tommy-Gun 

03-Окт-2010 14:47

Підайте газку plz

SergiouSSan Пол:Муж

11-Авг-2011 13:43

И как фильмец?

torrenter55 

04-Ноя-2011 06:12

Присоединяюсь к вопросу - стоит качать?

Яндекс.Метрика powered by Sphinx


В Н И М А Н И Е
Сайт не распространяет и не хранит электронные версии произведений, а лишь бесплатно и без коммерческой выгоды (не требуя взамен платы,
SMS и т.д.) предоставляет доступ к создаваемому пользователями каталогу ссылок на торрент-файлы, которые содержат только списки хеш-сумм.
Убедительная просьба с жалобами обращаться напрямую к пользователю, разместившему торрент файл.

Вверх