Loading...
Error

Глухарь в кино (Владимир Виноградов) [2010 г., комедия, криминальный, детектив, DVDRip]

Статистика раздачи
Размер:  1,7 GB   |    Зарегистрирован:  6 лет 6 месяцев   |    Скачан:  0 раз

Полного источника не было: 4 года 10 месяцев

Сидов:  0  |  0 KB/s  ]   Личеров:  0  |  0 KB/s  ]

* - сиды/пиры с внешних источников

   
 
Автор Сообщение

GUree Пол:Муж

15-Май-2010 15:09

Глухарь в кино


Год выпуска: 2010
Жанр: комедия, криминальный, детектив
Страна: Россия
Режиссер: Владимир Виноградов
В ролях: Максим Аверин, Денис Рожков, Юрий Чурсин, Павел Басов, Вячеслав Манучаров, Борис Химичев, Любава Аристархова, Алексей Серебряков, Владимир Фекленко, Мария Рассказова

Сюжет фильма: Два друга детства работают в одном отделении милиции. Сергей Глухарев — следователь, Денис Антошин — оперативник. Вечер, который они проводят с друзьями в ресторане, преподносит им ужасный сюрприз. Случайная ссора с одним из посетителей, после которой его находят убитым, переворачивает всю жизнь Глухарева и Антошина. Друзья объявлены в розыск как опасные преступники. Теперь за ними охотятся не только бывшие коллеги, но и профессиональный наемник, работающий на семью погибшего…

  • Российская премьера: 6 мая 2010, «Каропрокат»


Личная оценка: 10 - всем советую

Качество видео: DVDRip

Продолжительность: 01:26:05
Видео: кодек: x264, формат: mkv, размер кадра: 720x576@1024x576, битрейт: 2393 kbps
Аудио: язык: русский, перевод: оригинал, кодек: AC3 5.1, битрейт: 384 kbps

Семпл 1 на multi-up
Семпл 2 на multi-up
скриншоты сравнения с оригиналом

Релиз группы:








General
Complete name : Gluhar.v.kino.2010.DVDRip.AVC.mkv
Format : Matroska
File size : 1.70 GiB
Duration : 1h 26mn
Overall bit rate : 2 834 Kbps
Movie name : -=GUree=-
Encoded date : UTC 2010-05-15 12:58:01
Writing application : mkvmerge v3.3.0 ('Language') строится на Apr 12 2010 10:07:49
Writing library : libebml v0.8.0 + libmatroska v0.9.0

Video
ID : 1
Format : AVC
Format/Info : Advanced Video Codec
Format profile : High@L4.1
Format settings, CABAC : Yes
Format settings, ReFrames : 10 frames
Muxing mode : Container profile=Unknown@4.1
Codec ID : V_MPEG4/ISO/AVC
Duration : 1h 26mn
Bit rate : 2 394 Kbps
Nominal bit rate : 2 450 Kbps
Width : 720 pixels
Height : 576 pixels
Display aspect ratio : 16:9
Original display aspect ratio : 16:9
Frame rate mode : Variable
Frame rate : 25.000 fps
Standard : PAL
Resolution : 8 bits
Colorimetry : 4:2:0
Scan type : Progressive
Bits/(Pixel*Frame) : 0.231
Stream size : 1.44 GiB (84%)
Writing library : x264 core 92 r1510 33d382a
Encoding settings : cabac=1 / ref=10 / deblock=1:-2:-1 / analyse=0x3:0x113 / me=tesa / subme=10 / psy=1 / psy_rd=1.00:0.40 / mixed_ref=1 / me_range=32 / chroma_me=1 / trellis=2 / 8x8dct=1 / cqm=0 / deadzone=21,11 / fast_pskip=0 / chroma_qp_offset=-4 / threads=6 / sliced_threads=0 / nr=0 / decimate=0 / interlaced=0 / constrained_intra=0 / bframes=8 / b_pyramid=2 / b_adapt=2 / b_bias=0 / direct=3 / wpredb=1 / wpredp=2 / keyint=250 / keyint_min=25 / scenecut=40 / intra_refresh=0 / rc_lookahead=60 / rc=2pass / mbtree=1 / bitrate=2450 / ratetol=1.0 / qcomp=0.70 / qpmin=10 / qpmax=51 / qpstep=4 / cplxblur=20.0 / qblur=0.5 / vbv_maxrate=50000 / vbv_bufsize=50000 / ip_ratio=1.40 / aq=1:0.90 / nal_hrd=none

Audio
ID : 2
Format : AC-3
Format/Info : Audio Coding 3
Format_Settings_ModeExtension : CM (complete main)
Codec ID : A_AC3
Duration : 1h 26mn
Bit rate mode : Constant
Bit rate : 384 Kbps
Channel(s) : 6 channels
Channel positions : Front: L C R, Side: L R, LFE
Sampling rate : 48.0 KHz
Stream size : 236 MiB (14%)
Title : AC3 5.1 384Kb/s
Language : Russian

Этот торрент недоступен для скачивания без регистрации, однако доступен по публичной magnet-ссылке (источники с публичных трекеров). Перед использованием ссылки прочтите, пожалуйста Пользовательское соглашение, а также как можно дольше оставайтесь на раздаче! Для того, чтобы скачать сам торрент-файл (который видит больше источников), а также для того, чтобы поблагодарить релизера, вам необходимо зарегистрироваться. Если регистрироваться лень - вы можете также попробовать скачать релиз по нашим партнерским ссылкам ниже.

[underverse.su].t10141.torrent
Трекер: Зарегистрирован   [ 15.05.2010 15:09 ]  

Статус: проверено (by GUree at 15.05.2010 15:10)
Поблагодарили: пока никто не поблагодарил...
Тип торрента: публичный - доступные источники с открытых трекеров: 
Размер: 1,7 GB (занимает 0,39 DVDR, для записи нужно 1 болванка DVDR/RW)
 
 
Похожие темы
Форум Тема Автор Торрент Отв. Посл. сооб.
Наше кино [DVDRip, Low-Res HDRip, и т.д.] Глухарь в кино (Владимир Виноградов) [2010 г., комедия, криминал, детектив, DVDRip] Joey
2 | 0

2 | 1001

44

14.05.2010 09:54

Наше кино [DVDRip, Low-Res HDRip, и т.д.] Глухарь в кино ( Владимир Виноградов) [2010 г., комедия, криминал, детектив, DVDRip] GanibalKing
0 | 0

0 | 1595

13

14.05.2010 19:46



Последний раз редактировалось: GUree (16.05.2010 21:40), всего редактировалось 1 раз

GUree Пол:Муж

15-Май-2010 15:22

Скорее всего переделаю...
Терпеть не могу несуразный размер файла.
Качество от объема почти не выиграло! А хотелось бы!
Вот проба "пера"
http://comparescreenshots.slicx.com/comparison/56517/
Вроде одинаково..., но вот второе точно можно ужать до 1,46!

Яндекс.Метрика powered by Sphinx


В Н И М А Н И Е
Сайт не распространяет и не хранит электронные версии произведений, а лишь бесплатно и без коммерческой выгоды (не требуя взамен платы,
SMS и т.д.) предоставляет доступ к создаваемому пользователями каталогу ссылок на торрент-файлы, которые содержат только списки хеш-сумм.
Убедительная просьба с жалобами обращаться напрямую к пользователю, разместившему торрент файл.

Вверх