Loading...
Error

Снайпер (Андрей Щербинин) [2010 г., мелодрама, военный, DVDRip]

Статистика раздачи
Размер:  1,9 GB   |    Зарегистрирован:  6 лет 7 месяцев   |    Скачан:  6 раз

Полного источника не было: 4 года 10 месяцев

Сидов:  0  |  0 KB/s  ]   Личеров:  0  |  0 KB/s  ]

* - сиды/пиры с внешних источников

   
 
Автор Сообщение

GUree Пол:Муж

03-Май-2010 22:13

Снайпер


Год выпуска: 2010
Жанр: мелодрама, военный
Страна: Россия
Режиссер: Андрей Щербинин
В ролях: Алексей Комашко, Александр Барановский, Валерий Золотухин, Леонид Майзель, Наталья Терехова, Алексей Фокин

Сюжет фильма: Олег Назаров — майор спецподразделения, снайпер. Но его родные и близкие не знают об этом. Олег тщательно скрывает от жены и дочери свою истинную профессию и всякий раз, возвращаясь с задания, надевает маску обычного человека. Тем временем, город, в котором живёт Олег, охвачен паникой. Причиной тому стала череда убийств — каждый день от руки неизвестного стрелка погибает один человек…

  • Российская премьера: 1 января 2010


Личная оценка: 8 - мне понравилось

Качество видео: DVDRip

Продолжительность: 01:28:42
Видео: кодек: x264, формат: mkv, размер кадра: 720x552@1019x552, битрейт: 2563 kbps
Аудио: язык: русский, перевод: оригинал, кодек: AC3 5.1, битрейт: 448 kbps

Семпл 1 на multi-up
Семпл 2 на multi-up

Релиз группы:








General
Complete name : Snayper_2010_DVDRip_AVC.mkv
Format : Matroska
File size : 1.90 GiB
Duration : 1h 28mn
Overall bit rate : 3 073 Kbps
Movie name : -=GUree=-
Encoded date : UTC 2010-05-03 20:32:10
Writing application : mkvmerge v3.3.0 ('Language') строится на Apr 12 2010 10:07:49
Writing library : libebml v0.8.0 + libmatroska v0.9.0

Video
ID : 1
Format : AVC
Format/Info : Advanced Video Codec
Format profile : High@L4.1
Format settings, CABAC : Yes
Format settings, ReFrames : 10 frames
Muxing mode : Container profile=Unknown@4.1
Codec ID : V_MPEG4/ISO/AVC
Duration : 1h 28mn
Bit rate : 2 564 Kbps
Nominal bit rate : 2 624 Kbps
Width : 720 pixels
Height : 552 pixels
Display aspect ratio : 1,846
Frame rate mode : Variable
Frame rate : 25.000 fps
Resolution : 8 bits
Colorimetry : 4:2:0
Scan type : Progressive
Bits/(Pixel*Frame) : 0.258
Stream size : 1.59 GiB (83%)
Writing library : x264 core 92 r1510 33d382a
Encoding settings : cabac=1 / ref=10 / deblock=1:-2:-1 / analyse=0x3:0x113 / me=tesa / subme=10 / psy=1 / psy_rd=1.00:0.40 / mixed_ref=1 / me_range=32 / chroma_me=1 / trellis=2 / 8x8dct=1 / cqm=0 / deadzone=21,11 / fast_pskip=0 / chroma_qp_offset=-4 / threads=6 / sliced_threads=0 / nr=0 / decimate=0 / interlaced=0 / constrained_intra=0 / bframes=8 / b_pyramid=2 / b_adapt=2 / b_bias=0 / direct=3 / wpredb=1 / wpredp=2 / keyint=250 / keyint_min=25 / scenecut=40 / intra_refresh=0 / rc_lookahead=60 / rc=2pass / mbtree=1 / bitrate=2624 / ratetol=1.0 / qcomp=0.70 / qpmin=10 / qpmax=51 / qpstep=4 / cplxblur=20.0 / qblur=0.5 / vbv_maxrate=50000 / vbv_bufsize=50000 / ip_ratio=1.40 / aq=1:1.00 / nal_hrd=none

Audio
ID : 2
Format : AC-3
Format/Info : Audio Coding 3
Format_Settings_ModeExtension : CM (complete main)
Codec ID : A_AC3
Duration : 1h 28mn
Bit rate mode : Constant
Bit rate : 448 Kbps
Channel(s) : 6 channels
Channel positions : Front: L C R, Side: L R, LFE
Sampling rate : 48.0 KHz
Stream size : 284 MiB (15%)
Title : AC3 5.1 448Kb/s
Language : Russian

Этот торрент недоступен для скачивания без регистрации, однако доступен по публичной magnet-ссылке (источники с публичных трекеров). Перед использованием ссылки прочтите, пожалуйста Пользовательское соглашение, а также как можно дольше оставайтесь на раздаче! Для того, чтобы скачать сам торрент-файл (который видит больше источников), а также для того, чтобы поблагодарить релизера, вам необходимо зарегистрироваться. Если регистрироваться лень - вы можете также попробовать скачать релиз по нашим партнерским ссылкам ниже.

[underverse.su].t10020.torrent
Трекер: Зарегистрирован   [ 03.05.2010 22:13 ]  

Статус: проверено (by GUree at 03.05.2010 22:19)
Поблагодарили: пока никто не поблагодарил...
Тип торрента: публичный - доступные источники с открытых трекеров: 
Размер: 1,9 GB (занимает 0,43 DVDR, для записи нужно 1 болванка DVDR/RW)
 
 

Яндекс.Метрика powered by Sphinx


В Н И М А Н И Е
Сайт не распространяет и не хранит электронные версии произведений, а лишь бесплатно и без коммерческой выгоды (не требуя взамен платы,
SMS и т.д.) предоставляет доступ к создаваемому пользователями каталогу ссылок на торрент-файлы, которые содержат только списки хеш-сумм.
Убедительная просьба с жалобами обращаться напрямую к пользователю, разместившему торрент файл.

Вверх