Loading...
Error

22 пули: Бессмертный / L'immortel (Ришар Берри / Richard Berry) [2010 г., боевик, драма, криминальный, DVDRip]

Статистика раздачи
Размер:  2,19 GB   |    Зарегистрирован:  6 лет 7 месяцев   |    Скачан:  12 раз

Полного источника не было: 4 года 3 месяца

Сидов:  0  |  0 KB/s  ]   Личеров:  0  |  0 KB/s  ]

* - сиды/пиры с внешних источников

   
 
Автор Сообщение

GUree Пол:Муж

02-Май-2010 22:01

22 пули: Бессмертный / L'immortel


Год выпуска: 2010
Жанр: боевик, драма, криминальный
Страна: Франция
Режиссер: Ришар Берри / Richard Berry
В ролях: Жан Рено, Габриэлла Райт, Кад Мерад, Ришар Берри, Марина Фоис, Жан-Пьер Дарруссен, Клод Жансак, Доминик Томас, Фани Коларова, Венантино Венантини

Сюжет фильма: Шарль Матей — один из крестных отцов Марселя. Он решает отойти от дел и жить на покое, ведь ему немало лет, а за спиной слишком бурная жизнь. Но компаньоны против такого поворота событий. На него совершают жестокое покушение, не оставляя ему ни одного шанса.

Расстрелянного коллегами в упор, Шарля доставляют в больницу и извлекают из его тела 22 пули… Но каким-то чудом он остается жив. Теперь он жаждет отомстить своим некогда друзьям. И его месть будет не менее кровава и безжалостна.


  • Мировая премьера: 24 марта 2010
  • Российская премьера: 8 апреля 2010, «Top Film Distribution»




Личная оценка: 10 - всем советую

Качество видео: DVDRip

Продолжительность: 01:52:18
Видео: кодек: x264, формат: mkv, размер кадра: 720x424@1018x424, битрейт: 1968 kbps
Аудио #1: язык: русский, перевод: дублированный (дубляж), кодек: AC3 5.1, битрейт: 384 kbps
Аудио #2: язык: украинский, перевод: многоголосый закадровый, кодек: AC3 5.1, битрейт: 384 kbps

Семпл 1 на multi-up
Семпл 2 на multi-up

Релиз группы:








General
Complete name : L'immortel.2010.DVDRip.AVC.mkv
Format : Matroska
File size : 2.19 GiB
Duration : 1h 52mn
Overall bit rate : 2 792 Kbps
Movie name : -=GUree=-
Encoded date : UTC 2010-05-02 20:45:16
Writing application : mkvmerge v3.3.0 ('Language') строится на Apr 12 2010 10:07:49
Writing library : libebml v0.8.0 + libmatroska v0.9.0

Video
ID : 1
Format : AVC
Format/Info : Advanced Video Codec
Format profile : High@L3.1
Format settings, CABAC : Yes
Format settings, ReFrames : 10 frames
Muxing mode : Container profile=Unknown@3.1
Codec ID : V_MPEG4/ISO/AVC
Duration : 1h 52mn
Bit rate : 1 968 Kbps
Nominal bit rate : 2 022 Kbps
Width : 720 pixels
Height : 424 pixels
Display aspect ratio : 2.40:1
Frame rate : 25.000 fps
Resolution : 8 bits
Colorimetry : 4:2:0
Scan type : Progressive
Bits/(Pixel*Frame) : 0.258
Stream size : 1.54 GiB (71%)
Writing library : x264 core 79
Encoding settings : cabac=1 / ref=10 / deblock=1:-2:-1 / analyse=0x3:0x113 / me=tesa / subme=6 / psy=1 / psy_rd=1.0:0.0 / mixed_ref=0 / me_range=32 / chroma_me=1 / trellis=2 / 8x8dct=1 / cqm=0 / deadzone=21,11 / chroma_qp_offset=-2 / threads=6 / nr=0 / decimate=0 / mbaff=0 / constrained_intra=0 / bframes=8 / b_pyramid=0 / b_adapt=1 / b_bias=0 / direct=1 / wpredb=1 / wpredp=2 / keyint=250 / keyint_min=25 / scenecut=40 / rc_lookahead=40 / rc=2pass / mbtree=1 / bitrate=2022 / ratetol=1.0 / qcomp=0.60 / qpmin=10 / qpmax=51 / qpstep=4 / cplxblur=20.0 / qblur=0.5 / ip_ratio=1.40 / aq=1:1.00
Language : English
Color primaries : BT.601-6 525, BT.1358 525, BT.1700 NTSC, SMPTE 170M
Transfer characteristics : BT.709-5, BT.1361
Matrix coefficients : BT.601-6 525, BT.1358 525, BT.1700 NTSC, SMPTE 170M

Audio #1
ID : 2
Format : AC-3
Format/Info : Audio Coding 3
Format_Settings_ModeExtension : CM (complete main)
Codec ID : A_AC3
Duration : 1h 52mn
Bit rate mode : Constant
Bit rate : 384 Kbps
Channel(s) : 6 channels
Channel positions : Front: L C R, Side: L R, LFE
Sampling rate : 48.0 KHz
Stream size : 308 MiB (14%)
Title : AC3 5.1 384Kb/s
Language : Russian

Audio #2
ID : 3
Format : AC-3
Format/Info : Audio Coding 3
Format_Settings_ModeExtension : CM (complete main)
Codec ID : A_AC3
Duration : 1h 52mn
Bit rate mode : Constant
Bit rate : 384 Kbps
Channel(s) : 6 channels
Channel positions : Front: L C R, Side: L R, LFE
Sampling rate : 48.0 KHz
Stream size : 308 MiB (14%)
Title : AC3 5.1 384Kb/s
Language : Ukrainian

Этот торрент недоступен для скачивания без регистрации, однако доступен по публичной magnet-ссылке (источники с публичных трекеров). Перед использованием ссылки прочтите, пожалуйста Пользовательское соглашение, а также как можно дольше оставайтесь на раздаче! Для того, чтобы скачать сам торрент-файл (который видит больше источников), а также для того, чтобы поблагодарить релизера, вам необходимо зарегистрироваться. Если регистрироваться лень - вы можете также попробовать скачать релиз по нашим партнерским ссылкам ниже.

[underverse.su].t10014.torrent
Трекер: Зарегистрирован   [ 02.05.2010 22:07 ]  

Статус: проверено (by GUree at 02.05.2010 22:27)
Поблагодарили: 1 человек
Тип торрента: публичный - доступные источники с открытых трекеров: 
Размер: 2,19 GB (занимает 0,5 DVDR, для записи нужно 1 болванка DVDR/RW)
 
 
Похожие темы
Форум Тема Автор Торрент Отв. Посл. сооб.
Зарубежное кино [DVDRip, Low-Res HDRip, и т.д.] 22 пули: Бессмертный / L`immortel (Ришар Берри) [2010 г., боевик, драма, криминал, DVDRip] Joey
1 | 0

9 | 1990

138

05.11.2012 18:18

Архив 22 пули: Бессмертный / L`immortel (Ришар Берри) [2010 г., боевик, драма, криминал, DVD-5] andrej-ku
0 | 0

1 | 1976

8

05.11.2011 14:45



Последний раз редактировалось: GUree (13.07.2010 13:25), всего редактировалось 2 раз(а)

BartSimpson Пол:Муж

03-Май-2010 06:06

Фильм стоит внимания:)Всем качать 8)

KDN Пол:Муж

01-Июн-2010 10:33

дайте скорости плиз

добавлено спустя 17 минут 54 секунды:

где раздающие?

Seduxene2008 

01-Сен-2011 04:07

KDN писал(а):

где раздающие?
+1. Раздача заглохла?

Seduxene2008 

02-Сен-2011 12:40

Спасибо, скачал, раздаю. :)

Viktoriy2010 Пол:Жен

13-Янв-2012 17:57

хороший фильм

Яндекс.Метрика powered by Sphinx


В Н И М А Н И Е
Сайт не распространяет и не хранит электронные версии произведений, а лишь бесплатно и без коммерческой выгоды (не требуя взамен платы,
SMS и т.д.) предоставляет доступ к создаваемому пользователями каталогу ссылок на торрент-файлы, которые содержат только списки хеш-сумм.
Убедительная просьба с жалобами обращаться напрямую к пользователю, разместившему торрент файл.

Вверх