Loading...
Error

Точка отрыва / Action Point (Тим Киркби / Tim Kirkby) [2018 г., комедия, BDRemux 1080p] Dub + Original (Eng) + Sub (Rus, Eng)

Статистика раздачи
Размер:  21,13 GB   |    Зарегистрирован:  1 месяц 8 дней   |    Скачан:  12 раз

Полного источника не было: 4 часа

Сидов:  0  |  0 KB/s  ]   Личеров:  0  |  0 KB/s  ]

* - сиды/пиры с внешних источников

   
 
Автор Сообщение

90ytr90 

12-Авг-2018 06:45

Точка отрыва / Action Point


Страна: США
Год выпуска: 2018
Жанр: комедия
Продолжительность: 01:24:37
Озвучивание:
  • профессиональное (полное дублирование) [лицензия]
  • оригинальная звуковая дорожка [английский]

Режиссёр: Тим Киркби / Tim Kirkby

В ролях:
Джонни Ноксвил (D.C.), Сьюзэн Йигли (Adult Boogie), Крис Понтиус, Бригитт Ланди-Пейн (Four Finger Annie), Джонни Пембертон (Ziffel), Дэн Баккедаль (Knoblach), Элинор Вортингтон-Кокс (Boogie), Дэна Шик (Body Double), Джошуа Хувер (Hot Headed Pete), Коннер МакВикер (Stiv), Эйдан Уайток (Ron), Шиван Ходжсон (Teacher Christine Hollingworth)


Сюжет фильма:
История безрассудного парня, который решает претворить в жизнь свой амбициозный проект. Собрав команду таких же сумасбродов, он конструирует и открывает совершенно особенный парк развлечений. К какой-то катастрофе это приведет?

  • Дата мировой премьеры: 1 июня 2018
             
Качество видео: BDRemux 1080p
Формат: MKV
Видео: AVC, 1920x1080 (16:9), 30.5 Mbps, 23.976 (24000/1001) fps, 0.613 bit/pixel
Аудио #1: AC3, 640 kbps, 6 ch, 48 kHz, Dub [лицензия]
Аудио #2: DTS-HD MA, 4599/1509 kbps, 8/6 ch, 48 kHz, Original [English]
Субтитры: Russian (full), English (full, SDH)
Навигация по главам: есть (10)

Сборка: СелезеньS
General
Unique ID : 333871607959815278456807959502301829185 (0xFB2D552E1FD84FFFC46829B54A7A1841)
Complete name : D:Video111Action.Point.2018.BDREMUX.1080p.ExKinoRay.mkv
Format : Matroska
Format version : Version 4 / Version 2
File size : 21.1 GiB
Duration : 1 h 24 min
Overall bit rate mode : Variable
Overall bit rate : 35.7 Mb/s
Movie name : Action Point 2018 from ExKinoRay
Encoded date : UTC 2018-08-12 05:51:05
Writing application : mkvmerge v23.0.0 ('The Bride Said No') 64-bit
Writing library : libebml v1.3.6 + libmatroska v1.4.9

Video
ID : 1
Format : AVC
Format/Info : Advanced Video Codec
Format profile : High@L4.1
Format settings : CABAC / 4 Ref Frames
Format settings, CABAC : Yes
Format settings, ReFrames : 4 frames
Codec ID : V_MPEG4/ISO/AVC
Duration : 1 h 24 min
Bit rate mode : Variable
Bit rate : 30.5 Mb/s
Maximum bit rate : 32.7 Mb/s
Width : 1 920 pixels
Height : 1 080 pixels
Display aspect ratio : 16:9
Frame rate mode : Constant
Frame rate : 23.976 (24000/1001) FPS
Color space : YUV
Chroma subsampling : 4:2:0
Bit depth : 8 bits
Scan type : Progressive
Bits/(Pixel*Frame) : 0.613
Stream size : 18.0 GiB (85%)
Language : English
Default : Yes
Forced : No

Audio #1
ID : 2
Format : AC-3
Format/Info : Audio Coding 3
Commercial name : Dolby Digital
Codec ID : A_AC3
Duration : 1 h 24 min
Bit rate mode : Constant
Bit rate : 640 kb/s
Channel(s) : 6 channels
Channel positions : Front: L C R, Side: L R, LFE
Sampling rate : 48.0 kHz
Frame rate : 31.250 FPS (1536 SPF)
Bit depth : 16 bits
Compression mode : Lossy
Stream size : 387 MiB (2%)
Title : Dub [License]
Language : Russian
Service kind : Complete Main
Default : Yes
Forced : Yes

Audio #2
ID : 3
Format : DTS
Format/Info : Digital Theater Systems
Format profile : MA / Core
Codec ID : A_DTS
Duration : 1 h 24 min
Bit rate mode : Variable / Constant
Bit rate : 4 599 kb/s / 1 509 kb/s
Channel(s) : 8 channels / 6 channels
Channel positions : Front: L C R, Side: L R, Back: L R, LFE / Front: L C R, Side: L R, LFE
Sampling rate : 48.0 kHz
Frame rate : 93.750 FPS (512 SPF)
Bit depth : 24 bits
Compression mode : Lossless / Lossy
Stream size : 2.72 GiB (13%)
Title : Original
Language : English
Default : No
Forced : No

Text #1
ID : 4
Format : UTF-8
Codec ID : S_TEXT/UTF8
Codec ID/Info : UTF-8 Plain Text
Duration : 1 h 23 min
Bit rate : 101 b/s
Count of elements : 1139
Stream size : 62.1 KiB (0%)
Title : Full
Language : Russian
Default : No
Forced : No

Text #2
ID : 5
Format : UTF-8
Codec ID : S_TEXT/UTF8
Codec ID/Info : UTF-8 Plain Text
Duration : 1 h 17 min
Bit rate : 63 b/s
Count of elements : 1137
Stream size : 36.1 KiB (0%)
Title : Full
Language : English
Default : No
Forced : No

Text #3
ID : 6
Format : UTF-8
Codec ID : S_TEXT/UTF8
Codec ID/Info : UTF-8 Plain Text
Duration : 1 h 24 min
Bit rate : 65 b/s
Count of elements : 1273
Stream size : 40.6 KiB (0%)
Title : SDH
Language : English
Default : No
Forced : No

Menu
00:00:00.000 : en:00:00:00.000
00:13:22.218 : en:00:13:22.218
00:20:20.219 : en:00:20:20.219
00:27:39.867 : en:00:27:39.867
00:36:38.446 : en:00:36:38.446
00:44:15.528 : en:00:44:15.528
00:51:59.408 : en:00:51:59.408
00:57:39.539 : en:00:57:39.539
01:05:17.038 : en:01:05:17.038
01:14:09.236 : en:01:14:09.236


pic pic pic
Для увеличения картинки щелкните мышкой по превью



pic pic pic pic pic

Этот торрент недоступен для скачивания без регистрации, однако доступен по публичной magnet-ссылке (источники с публичных трекеров). Перед использованием ссылки прочтите, пожалуйста Пользовательское соглашение, а также как можно дольше оставайтесь на раздаче! Для того, чтобы скачать сам торрент-файл (который видит больше источников), а также для того, чтобы поблагодарить релизера, вам необходимо зарегистрироваться. Если регистрироваться лень - вы можете также попробовать скачать релиз по нашим партнерским ссылкам ниже. Кроме того, зарегистрированным пользователям не показывается всплывающая реклама при скачивании.

[underverse.name].t111037.torrent
Трекер: Зарегистрирован   [ 12.08.2018 06:45 ]  

Статус: проверено (by 90ytr90 at 12.08.2018 14:18)
Поблагодарили: 1 человек
Тип торрента: публичный - доступные источники с открытых трекеров: 
Размер: 21,13 GB (занимает 4,83 DVDR, для записи нужно 5 болванок DVDR/RW)
 
 
Похожие темы
Форум Тема Автор Торрент Отв. Посл. сооб.
Зарубежное кино [DVDRip, Low-Res HDRip, и т.д.] Точка отрыва / Action Point (Тим Киркби / Tim Kirkby) [2018 г., комедия, BDRip] Dub 90ytr90
333 | 14

0 | 471

43

12.08.2018 10:49

Зарубежное кино [DVDRip, Low-Res HDRip, и т.д.] Точка отрыва / Action Point (Тим Киркби / Tim Kirkby) [2018 г., комедия, BDRip-AVC] Dub + Original (Eng) + Sub (Rus, Eng) 90ytr90
49 | 3

0 | 227

8

19.08.2018 14:23

Зарубежное кино [HDDVDRip / BDRip / WEB-DL / HDTV 1080/720р] Точка отрыва / Action Point (Тим Киркби / Tim Kirkby) [2018 г., комедия, BDRip 720p] Dub + Original (Eng) + Sub (Rus, Eng) 90ytr90
220 | 5

0 | 452

14

12.08.2018 15:18

Зарубежное кино [HDDVDRip / BDRip / WEB-DL / HDTV 1080/720р] Точка отрыва / Action Point (Тим Киркби / Tim Kirkby) [2018 г., комедия, BDRip 1080p] Dub + Original (Eng) + Sub (Rus, Eng) 90ytr90
75 | 6

0 | 257

10

19.08.2018 14:27


Яндекс.Метрика powered by Sphinx


В Н И М А Н И Е
Сайт не распространяет и не хранит электронные версии произведений, а лишь бесплатно и без коммерческой выгоды (не требуя взамен платы,
SMS и т.д.) предоставляет доступ к создаваемому пользователями каталогу ссылок на торрент-файлы, которые содержат только списки хеш-сумм.
Убедительная просьба с жалобами обращаться напрямую к пользователю, разместившему торрент файл.

Вверх