Loading...
Error

V Центурия. В поисках зачарованных сокровищ (Руслан Бальтцер) [2010 г., комедия, приключения, DVDRip]

Статистика раздачи
Размер:  2,18 GB   |    Зарегистрирован:  6 лет 7 месяцев   |    Скачан:  4 раза

Полного источника не было: 4 года 10 месяцев

Сидов:  0  |  0 KB/s  ]   Личеров:  0  |  0 KB/s  ]

* - сиды/пиры с внешних источников

   
 
Автор Сообщение

GUree Пол:Муж

29-Апр-2010 18:49

V Центурия. В поисках зачарованных сокровищ


Год выпуска: 2010
Жанр: комедия, приключения
Страна: Россия
Режиссер: Руслан Бальтцер
В ролях: Денис Никифоров, Инна Гомес, Эвклид Кюрдзидис, Олег Долин, Хек Су Пак, Владимир Зайцев, Наталья Рудова, Георгий Пицхелаури, Ёла Санько, Сергей Лобынцев

Сюжет фильма: Апрель 1945 года. Войска Красной армии вплотную подошли к Берлину. Группе русских солдат, ворвавшихся в старинный замок, удается буквально из печи спасти загадочные артефакты — жезл, диадему, амулет, кинжал и браслет… Солдаты поделили трофеи между собой…

В наши дни потомок немецкого барона, которому когда-то принадлежали те самые пять артефактов, решает вернуть утраченные сокровища. Люди барона находят в России Сергея Потемкина — проходимца и авантюриста, помогают ему избавиться от проблем с законом и предлагают выгодную, на первый взгляд, сделку — найти разбросанные по всему миру предметы за вознаграждение в миллион евро. Сергей соглашается, даже не подозревая, какая опасность грозит миру, если он выполнит задание барона…


  • Российская премьера: 18 марта 2010, «Наше Кино»


Личная оценка: 8 - мне понравилось

Качество видео: DVDRip

Продолжительность: 01:46:39
Видео: кодек: x264, формат: mkv, размер кадра: 720x432@1016x432, битрейт: 2418 kbps
Аудио: язык: русский, перевод: оригинал, кодек: AC3 5.1, битрейт: 448 kbps

Семпл 1 на multi-up
Семпл 2 на multi-up

Релиз группы:








General
Complete name : V.Tzenturija.2010.DVDRip.AVC.mkv
Format : Matroska
File size : 2.18 GiB
Duration : 1h 46mn
Overall bit rate : 2 925 Kbps
Movie name : -=GUree=-
Encoded date : UTC 2010-04-19 08:35:06
Writing application : mkvmerge v3.2.0 ('Beginnings') built on Feb 12 2010 16:46:17
Writing library : libebml v0.7.9 + libmatroska v0.8.1

Video
ID : 1
Format : AVC
Format/Info : Advanced Video Codec
Format profile : High@L4.1
Format settings, CABAC : Yes
Format settings, ReFrames : 10 frames
Muxing mode : Container profile=Unknown@4.1
Codec ID : V_MPEG4/ISO/AVC
Duration : 1h 46mn
Bit rate : 2 419 Kbps
Nominal bit rate : 2 478 Kbps
Width : 720 pixels
Height : 432 pixels
Display aspect ratio : 2.35:1
Original display aspect ratio : 2.35:1
Frame rate mode : Variable
Frame rate : 25.000 fps
Resolution : 8 bits
Colorimetry : 4:2:0
Scan type : Progressive
Bits/(Pixel*Frame) : 0.311
Stream size : 1.80 GiB (83%)
Writing library : x264 core 92 r1510 33d382a
Encoding settings : cabac=1 / ref=10 / deblock=1:-2:-1 / analyse=0x3:0x113 / me=tesa / subme=10 / psy=1 / psy_rd=1.00:0.40 / mixed_ref=1 / me_range=32 / chroma_me=1 / trellis=2 / 8x8dct=1 / cqm=0 / deadzone=21,11 / fast_pskip=0 / chroma_qp_offset=-4 / threads=6 / sliced_threads=0 / nr=0 / decimate=0 / interlaced=0 / constrained_intra=0 / bframes=8 / b_pyramid=2 / b_adapt=2 / b_bias=0 / direct=3 / wpredb=1 / wpredp=2 / keyint=250 / keyint_min=25 / scenecut=40 / intra_refresh=0 / rc_lookahead=60 / rc=2pass / mbtree=1 / bitrate=2478 / ratetol=1.0 / qcomp=0.60 / qpmin=10 / qpmax=51 / qpstep=4 / cplxblur=20.0 / qblur=0.5 / vbv_maxrate=50000 / vbv_bufsize=50000 / ip_ratio=1.40 / aq=1:1.00 / nal_hrd=none

Audio
ID : 2
Format : AC-3
Format/Info : Audio Coding 3
Format_Settings_ModeExtension : CM (complete main)
Codec ID : A_AC3
Duration : 1h 46mn
Bit rate mode : Constant
Bit rate : 448 Kbps
Channel(s) : 6 channels
Channel positions : Front: L C R, Side: L R, LFE
Sampling rate : 48.0 KHz
Stream size : 342 MiB (15%)
Title : AC3 5.1 448kB/s
Language : Russian

Этот торрент недоступен для скачивания без регистрации, однако доступен по публичной magnet-ссылке (источники с публичных трекеров). Перед использованием ссылки прочтите, пожалуйста Пользовательское соглашение, а также как можно дольше оставайтесь на раздаче! Для того, чтобы скачать сам торрент-файл (который видит больше источников), а также для того, чтобы поблагодарить релизера, вам необходимо зарегистрироваться. Если регистрироваться лень - вы можете также попробовать скачать релиз по нашим партнерским ссылкам ниже.

[underverse.su].t9992.torrent
Трекер: Зарегистрирован   [ 29.04.2010 18:49 ]  

Статус: проверено (by GUree at 29.04.2010 18:53)
Поблагодарили: пока никто не поблагодарил...
Тип торрента: публичный - доступные источники с открытых трекеров: 
Размер: 2,18 GB (занимает 1/2 DVDR, для записи нужно 1 болванка DVDR/RW)
 
 
Похожие темы
Форум Тема Автор Торрент Отв. Посл. сооб.
Архив V Центурия. В поисках зачарованных сокровищ (Руслан Бальтцер) [2010 г., комедия, приключения, DVDRip] LAMA
0 | 0

6 | 1685

21

16.06.2011 08:08

Архив V Центурия. В поисках зачарованных сокровищ (Руслан Бальтцер) [2010 г., комедия, приключения, DVD-5] andrej-ku
0 | 0

1 | 946

2

17.02.2011 14:46


Яндекс.Метрика powered by Sphinx


В Н И М А Н И Е
Сайт не распространяет и не хранит электронные версии произведений, а лишь бесплатно и без коммерческой выгоды (не требуя взамен платы,
SMS и т.д.) предоставляет доступ к создаваемому пользователями каталогу ссылок на торрент-файлы, которые содержат только списки хеш-сумм.
Убедительная просьба с жалобами обращаться напрямую к пользователю, разместившему торрент файл.

Вверх