Loading...
Error

На игре 2. Новый уровень (Павел Санаев) [2010 г., боевик, приключения, DVDRip]

Статистика раздачи
Размер:  2,18 GB   |    Зарегистрирован:  6 лет 7 месяцев   |    Скачан:  5 раз

Полного источника не было: 13 дней

Сидов:  0  |  0 KB/s  ]   Личеров:  0  |  0 KB/s  ]

* - сиды/пиры с внешних источников

   
 
Автор Сообщение

GUree Пол:Муж

29-Апр-2010 04:40

На игре 2. Новый уровень


Год выпуска: 2010
Жанр: боевик, приключения
Страна: Россия
Режиссер: Павел Санаев
В ролях: Алексей Бардуков, Агния Дитковските, Марина Петренко, Сергей Чирков, Павел Прилучный, Евгений Харланов, Виктор Вержбицкий, Александр Лыков, Игорь Скляр, Нодар Сирадзе

Сюжет фильма: После проведения спецоперации, во время которой был убит один из членов команды, у геймеров начинается другая жизнь. Каждый из них понимает — они работают на крупный преступный синдикат.

За дисками теперь охотятся все — и властные структуры, и геймеры. Задача — не допустить, чтобы такой материал попал за границу. Часть команды решает забрать их себе и сформировать собственную подконтрольную армию. Вампир и Рита пытаются им помешать.

Теперь в команде — каждый сам за себя.


  • Мировая премьера: 15 апреля 2010
  • Российская премьера: 15 апреля 2010, «Каропрокат»


Личная оценка: 10 - всем советую

Качество видео: DVDRip

Продолжительность: 01:25:51
Видео: кодек: x264, формат: mkv, размер кадра: 720x448@1008x448, битрейт: 2362 kbps
Аудио #1: язык: русский, перевод: оригинал, кодек: AC3 5.1, битрейт: 448 kbps
Аудио #2: язык: русский, перевод: оригинал, кодек: DTS 5.1, битрейт: 754 kbps

Семпл 1 на multi-up
Семпл 2 на multi-up

Релиз группы:










General
Complete name : Na_igre.2.Vtoroy_uroven.2010.DVDRip.AVC.mkv
Format : Matroska
File size : 2.18 GiB
Duration : 1h 25mn
Overall bit rate : 3 637 Kbps
Movie name : -=GUree=-
Encoded date : UTC 2010-04-23 09:34:27
Writing application : mkvmerge v3.2.0 ('Beginnings') built on Feb 12 2010 16:46:17
Writing library : libebml v0.7.9 + libmatroska v0.8.1

Video
ID : 1
Format : AVC
Format/Info : Advanced Video Codec
Format profile : High@L4.1
Format settings, CABAC : Yes
Format settings, ReFrames : 10 frames
Muxing mode : Container profile=Unknown@4.1
Codec ID : V_MPEG4/ISO/AVC
Duration : 1h 25mn
Bit rate : 2 363 Kbps
Nominal bit rate : 2 436 Kbps
Width : 720 pixels
Height : 448 pixels
Display aspect ratio : 2.25:1
Frame rate mode : Variable
Frame rate : 25.000 fps
Resolution : 8 bits
Colorimetry : 4:2:0
Scan type : Progressive
Bits/(Pixel*Frame) : 0.293
Stream size : 1.42 GiB (65%)
Writing library : x264 core 92 r1510 33d382a
Encoding settings : cabac=1 / ref=10 / deblock=1:-2:-1 / analyse=0x3:0x113 / me=tesa / subme=10 / psy=1 / psy_rd=1.00:0.40 / mixed_ref=1 / me_range=32 / chroma_me=1 / trellis=2 / 8x8dct=1 / cqm=0 / deadzone=21,11 / fast_pskip=0 / chroma_qp_offset=-4 / threads=6 / sliced_threads=0 / nr=0 / decimate=0 / interlaced=0 / constrained_intra=0 / bframes=8 / b_pyramid=2 / b_adapt=2 / b_bias=0 / direct=3 / wpredb=1 / wpredp=2 / keyint=250 / keyint_min=25 / scenecut=40 / intra_refresh=0 / rc_lookahead=60 / rc=2pass / mbtree=1 / bitrate=2436 / ratetol=1.0 / qcomp=0.60 / qpmin=10 / qpmax=51 / qpstep=4 / cplxblur=20.0 / qblur=0.5 / vbv_maxrate=50000 / vbv_bufsize=50000 / ip_ratio=1.40 / aq=1:1.00 / nal_hrd=none

Audio #1
ID : 2
Format : AC-3
Format/Info : Audio Coding 3
Format_Settings_ModeExtension : CM (complete main)
Codec ID : A_AC3
Duration : 1h 25mn
Bit rate mode : Constant
Bit rate : 448 Kbps
Channel(s) : 6 channels
Channel positions : Front: L C R, Side: L R, LFE
Sampling rate : 48.0 KHz
Stream size : 275 MiB (12%)
Title : AC3 5.1 448Kb/s
Language : Russian

Audio #2
ID : 3
Format : DTS
Format/Info : Digital Theater Systems
Codec ID : A_DTS
Duration : 1h 25mn
Bit rate mode : Constant
Bit rate : 755 Kbps
Channel(s) : 6 channels
Channel positions : Front: L C R, Side: L R, LFE
Sampling rate : 48.0 KHz
Resolution : 24 bits
Stream size : 463 MiB (21%)
Title : DTS 5.1 754Kb/s
Language : Russian

Этот торрент недоступен для скачивания без регистрации, однако доступен по публичной magnet-ссылке (источники с публичных трекеров). Перед использованием ссылки прочтите, пожалуйста Пользовательское соглашение, а также как можно дольше оставайтесь на раздаче! Для того, чтобы скачать сам торрент-файл (который видит больше источников), а также для того, чтобы поблагодарить релизера, вам необходимо зарегистрироваться. Если регистрироваться лень - вы можете также попробовать скачать релиз по нашим партнерским ссылкам ниже.

[underverse.su].t9989.torrent
Трекер: Зарегистрирован   [ 29.04.2010 04:40 ]  

Статус: проверено (by GUree at 29.04.2010 04:52)
Поблагодарили: пока никто не поблагодарил...
Тип торрента: публичный - доступные источники с открытых трекеров: 
Размер: 2,18 GB (занимает 1/2 DVDR, для записи нужно 1 болванка DVDR/RW)
 
 
Похожие темы
Форум Тема Автор Торрент Отв. Посл. сооб.
Наше кино [DVDRip, Low-Res HDRip, и т.д.] На игре 2. Новый уровень (Павел Санаев) [2010 г., боевик, приключения, DVDRip] maddd
0 | 0

6 | 2230

60

26.02.2011 14:53

Архив На игре 2. Новый уровень (Павел Санаев) [2010 г., боевик, приключения, DVDRip] BartSimpson
0 | 0

3 | 1218

18

16.06.2011 08:08

Архив На игре 2. Новый уровень (Павел Санаев) [2010 г., боевик, приключения, DVD-5] andrej-ku
0 | 0

3 | 917

5

16.06.2011 08:09


Яндекс.Метрика powered by Sphinx


В Н И М А Н И Е
Сайт не распространяет и не хранит электронные версии произведений, а лишь бесплатно и без коммерческой выгоды (не требуя взамен платы,
SMS и т.д.) предоставляет доступ к создаваемому пользователями каталогу ссылок на торрент-файлы, которые содержат только списки хеш-сумм.
Убедительная просьба с жалобами обращаться напрямую к пользователю, разместившему торрент файл.

Вверх