Loading...
Error

Принцесса и лягушка / The Princess and the Frog (Рон Клементс / Ron Clements, Джон Маскер / John Musker) [2009 г., фэнтези, мелодрама, семейный, мьюзикл, BDRip]

Статистика раздачи
Размер:  2,19 GB   |    Зарегистрирован:  6 лет 7 месяцев   |    Скачан:  0 раз

Полного источника не было: 4 года 10 месяцев

Сидов:  0  |  0 KB/s  ]   Личеров:  0  |  0 KB/s  ]

* - сиды/пиры с внешних источников

   
 
Автор Сообщение

GUree Пол:Муж

20-Апр-2010 11:10

Принцесса и лягушка / The Princess and the Frog


Год выпуска: 2009
Жанр: фэнтези, мелодрама, семейный, мьюзикл
Страна: США
Режиссер: Рон Клементс / Ron Clements, Джон Маскер / John Musker
Роли озвучивали: Аника Нони Роуз, Бруно Кампос, Кит Дэвид, Дженнифер Коуди, Джим Каммингс, Питер Бартлетт, Дженифер Льюис, Опра Уинфри, Терренс Ховард
Роли дублировали: Анна Бутурлина, Стас Пьеха, Андрей Белявский, Билли Новик, Игорь Балалаев, Лариса Долина

Сюжет фильма: Все мы знаем, что бывает, когда принц целует заколдованную в лягушку принцессу. Но что случится, если переодетая в принцессу официантка поцелует лягушку-принца?

Команда мультипликаторов под руководством Рона Клементса и Джона Маскера, создателей «Русалочки» и «Аладдина», а также обладатель премии «Оскар» композитор Рэнди Ньюман поведают самую прекрасную историю любви на свете… с участием лягушек, магии Вуду и поющего аллигатора.


  • Мировая премьера: 25 ноября 2009
  • Российская премьера: 1 января 2010, «BVSPR Disney»


Личная оценка: 10 - всем советую

Качество видео: BDRip

Продолжительность: 01:37:27
Видео: кодек: x264, формат: mkv, размер кадра: 1024x576, битрейт: 1994 kbps
Аудио #1: язык: русский, перевод: дублированный (дубляж), кодек: AC3 5.1, битрейт: 384 kbps
Аудио #2: язык: украинский, перевод: дублированный (дубляж), кодек: AC3 5.1, битрейт: 384 kbps
Аудио #3: язык: английский, перевод: оригинал, кодек: AC3 5.1, битрейт: 384 kbps
Субтитры #1: тип: вшитые отключаемые, язык: русский, формат: S_TEXT/UTF8
Субтитры #2: тип: вшитые отключаемые, язык: украинский, формат: S_TEXT/UTF8
Субтитры #3: тип: вшитые отключаемые, язык: английский, формат: S_TEXT/UTF8

Релиз группы:








General
Complete name : E:The_Princess_and_the_Frog.2009.BDRip.AVC.mkv
Format : Matroska
File size : 2.19 GiB
Duration : 1h 37mn
Overall bit rate : 3 210 Kbps
Movie name : -=GUree=-
Encoded date : UTC 2010-04-20 10:56:09
Writing application : mkvmerge v3.2.0 ('Beginnings') built on Feb 12 2010 16:46:17
Writing library : libebml v0.7.9 + libmatroska v0.8.1

Video
ID : 1
Format : AVC
Format/Info : Advanced Video Codec
Format profile : High@L4.1
Format settings, CABAC : Yes
Format settings, ReFrames : 8 frames
Muxing mode : Container profile=Unknown@4.1
Codec ID : V_MPEG4/ISO/AVC
Duration : 1h 37mn
Bit rate : 1 994 Kbps
Nominal bit rate : 2 055 Kbps
Width : 1 024 pixels
Height : 576 pixels
Display aspect ratio : 16:9
Frame rate : 23.976 fps
Resolution : 8 bits
Colorimetry : 4:2:0
Scan type : Progressive
Bits/(Pixel*Frame) : 0.141
Stream size : 1.36 GiB (62%)
Writing library : x264 core 92 r1510 33d382a
Encoding settings : cabac=1 / ref=8 / deblock=1:-2:-1 / analyse=0x3:0x113 / me=tesa / subme=10 / psy=1 / psy_rd=1.00:0.40 / mixed_ref=1 / me_range=32 / chroma_me=1 / trellis=2 / 8x8dct=1 / cqm=0 / deadzone=21,11 / fast_pskip=0 / chroma_qp_offset=-4 / threads=6 / sliced_threads=0 / nr=0 / decimate=0 / interlaced=0 / constrained_intra=0 / bframes=6 / b_pyramid=2 / b_adapt=2 / b_bias=0 / direct=3 / wpredb=1 / wpredp=2 / keyint=250 / keyint_min=25 / scenecut=40 / intra_refresh=0 / rc_lookahead=60 / rc=2pass / mbtree=1 / bitrate=2055 / ratetol=1.0 / qcomp=0.60 / qpmin=10 / qpmax=51 / qpstep=4 / cplxblur=20.0 / qblur=0.5 / vbv_maxrate=50000 / vbv_bufsize=50000 / ip_ratio=1.40 / aq=1:1.00 / nal_hrd=none

Audio #1
ID : 2
Format : AC-3
Format/Info : Audio Coding 3
Format_Settings_ModeExtension : CM (complete main)
Codec ID : A_AC3
Duration : 1h 37mn
Bit rate mode : Constant
Bit rate : 384 Kbps
Channel(s) : 6 channels
Channel positions : Front: L C R, Side: L R, LFE
Sampling rate : 48.0 KHz
Stream size : 268 MiB (12%)
Title : AC3 5.1 384Kb/s
Language : Russian

Audio #2
ID : 3
Format : AC-3
Format/Info : Audio Coding 3
Format_Settings_ModeExtension : CM (complete main)
Codec ID : A_AC3
Duration : 1h 37mn
Bit rate mode : Constant
Bit rate : 384 Kbps
Channel(s) : 6 channels
Channel positions : Front: L C R, Side: L R, LFE
Sampling rate : 48.0 KHz
Stream size : 268 MiB (12%)
Title : AC3 5.1 384Kb/s
Language : Ukrainian

Audio #3
ID : 4
Format : AC-3
Format/Info : Audio Coding 3
Format_Settings_ModeExtension : CM (complete main)
Codec ID : A_AC3
Duration : 1h 37mn
Bit rate mode : Constant
Bit rate : 384 Kbps
Channel(s) : 6 channels
Channel positions : Front: L C R, Side: L R, LFE
Sampling rate : 48.0 KHz
Stream size : 268 MiB (12%)
Title : AC3 5.1 384Kb/s
Language : English

Text #1
ID : 5
Format : UTF-8
Codec ID : S_TEXT/UTF8
Codec ID/Info : UTF-8 Plain Text
Language : Russian

Text #2
ID : 6
Format : UTF-8
Codec ID : S_TEXT/UTF8
Codec ID/Info : UTF-8 Plain Text
Language : Ukrainian

Text #3
ID : 7
Format : UTF-8
Codec ID : S_TEXT/UTF8
Codec ID/Info : UTF-8 Plain Text
Language : English

Этот торрент недоступен для скачивания без регистрации, однако доступен по публичной magnet-ссылке (источники с публичных трекеров). Перед использованием ссылки прочтите, пожалуйста Пользовательское соглашение, а также как можно дольше оставайтесь на раздаче! Для того, чтобы скачать сам торрент-файл (который видит больше источников), а также для того, чтобы поблагодарить релизера, вам необходимо зарегистрироваться. Если регистрироваться лень - вы можете также попробовать скачать релиз по нашим партнерским ссылкам ниже.

[underverse.su].t9909.torrent
Трекер: Зарегистрирован   [ 20.04.2010 11:10 ]  

Статус: проверено (by GUree at 20.04.2010 11:48)
Поблагодарили: 1 человек
Тип торрента: публичный - доступные источники с открытых трекеров: 
Размер: 2,19 GB (занимает 1/2 DVDR, для записи нужно 1 болванка DVDR/RW)
 
 
Похожие темы
Форум Тема Автор Торрент Отв. Посл. сооб.
Зарубежное кино [DVDRip, Low-Res HDRip, и т.д.] Принцесса де Монпансье / The Princess of Montpensier / La princesse de Montpensier (Бертран Тавернье / Bertrand Tavernier) [2010, драма, мелодрама, история, BDRip] Dub + Original fra 90ytr90
4 | 0

0 | 635

8

06.10.2012 06:41

Зарубежное кино [DVDRip, Low-Res HDRip, и т.д.] Принцесса и нищий / Il principe abusivo (Алессандро Сиани) [2013 г., комедия, HDRip] MVO Паукан
46 | 1

0 | 788

13

11.07.2014 10:59

Зарубежное кино [DVDRip, Low-Res HDRip, и т.д.] Принцесса Монако / Grace of Monaco (Оливье Даан) [2014 г., драма, мелодрама, биография, BDRip] Dub Паукан
23 | 0

0 | 979

11

28.07.2014 08:08

Зарубежное кино [DVDRip, Low-Res HDRip, и т.д.] Принцесса Монако / Grace of Monaco (Оливье Даан) [2014 г., биография, драма, HDRip] Dub Паукан
10 | 0

0 | 1057

22

28.07.2014 08:33

Зарубежное кино [DVDRip, Low-Res HDRip, и т.д.] Принцесса Монако / Grace of Monaco (Оливье Даан) [2014 г., Драма, Мелодрама, Биография, BDRip-AVC] Dub (RUS, Лицензия) Ведьмочка
1 | 0

0 | 676

15

03.09.2014 08:41

Зарубежное кино [DVDRip, Low-Res HDRip, и т.д.] Принцесса Монако / Grace of Monaco (Оливье Даан) [2014 г., Драма, Мелодрама, Биография, BDRip] Dub (RUS, Лицензия) + Original (ENG) Ведьмочка
5 | 1

0 | 401

6

03.10.2014 06:07

T Зарубежные мультфильмы Принцесса Лебедь: Пират или принцесса? / The Swan Princess: Princess Tomorrow, Pirate Today! (Брайан Ниссен / Brian Nissen, Ричард Рич / Richard Rich) [2016 г., мультфильм, семейный, WEB-DLRip] MVO... 90ytr90
82 | 1

0 | 280

8

19.11.2016 18:18

Зарубежные мультфильмы Принцесса Лебедь 5: Королевская сказка / Swan Princess: A Royal Family Tale (Ричард Рич) [2013 г., фэнтези, HDTVRip] MVO + Original (Eng) 90ytr90
2 | 0

0 | 755

37

25.02.2014 11:15

T Зарубежные мультфильмы Принцесса Лебедь: Пират или принцесса? / The Swan Princess: Princess Tomorrow, Pirate Today! (Брайан Ниссен / Brian Nissen, Ричард Рич / Richard Rich) [2016 г., мультфильм, семейный, WEB-DLRip] MVO... 90ytr90
389 | 20

0 | 198

7

15.10.2016 19:02

Аниме Принцесса Мононоке / Princess Mononoke / Mononoke Hime (Хаяо Миядзаки / Hayao Miyazaki) [1997 г., аниме, мультфильм, фэнтези, драма, приключения, HDRip] Dub 90ytr90
134 | 4

0 | 672

7

01.02.2014 17:55


Яндекс.Метрика powered by Sphinx


В Н И М А Н И Е
Сайт не распространяет и не хранит электронные версии произведений, а лишь бесплатно и без коммерческой выгоды (не требуя взамен платы,
SMS и т.д.) предоставляет доступ к создаваемому пользователями каталогу ссылок на торрент-файлы, которые содержат только списки хеш-сумм.
Убедительная просьба с жалобами обращаться напрямую к пользователю, разместившему торрент файл.

Вверх