Loading...
Error

Восстание / Revolt (Джо Миэйл / Joe Miale) [2017 г., фантастика, боевик, BDRemux 1080p] Dub (iTunes) + Original (Eng) + Sub (Rus, Eng)

Статистика раздачи
Размер:  19,33 GB   |    Зарегистрирован:  2 месяца 19 дней   |    Скачан:  15 раз
Сидов:  1  |  0 KB/s  ]   Личеров:  0  |  0 KB/s  ]

* - сиды/пиры с внешних источников

   
 
Автор Сообщение

90ytr90 

27-Июл-2018 18:59

Восстание / Revolt
«To live is to fight»

Страна: Великобритания / 42, POW Movie, Tea Shop & Film Company...
Год выпуска: 2017
Жанр: фантастика, боевик
Продолжительность: 01:27:16
Озвучивание:
  • профессиональное (полное дублирование) [iTunes]
  • оригинальная звуковая дорожка [английский]

Режиссёр: Джо Миэйл / Joe Miale

В ролях:
Ли Пейс (Bo), Беренис Марло (Nadia), Джейсон Флеминг (Stander), Сибулеле Гсилитшана (Kara), Вандиль Молебаци (Roderick), Sekoati Sk Tsubane (Juma), Лерой Гопал (Jeandre), Welile Nzunza (Cedric), Patrick Bakoba (Kenyan Captain), Том Фэйрфут (Lieutenant Smalls), Бен Тджибе (Lookout), Шантель Херман (Female Medic)


Сюжет фильма:
Американский спецназовец был в Африке, когда Землю атаковали высокотехнологичные пришельцы. Столкнувшись с захватчиками, наш герой потерял сознание, а когда очнулся запертым в заброшенном полицейском участке, то понял, что лишился ещё и памяти. В соседней камере обнаружилась врач местной больницы Надя, а огромные наэлектризованные инопланетные роботы-убийцы - не самое страшное, с чем придётся столкнуться двум белым людям в Африке.

  • Дата мировой премьеры: 1 июля 2017
  • Цифровой релиз: 27 июля 2018, «Централ Партнершип»
             
Качество видео: BDRemux 1080p
Формат: MKV
Видео: AVC, 1920x1080 (16:9), 26.5 Mbps, 23.976 (24000/1001) fps, 0.534 bit/pixel
Аудио #1: AC3, 384 kbps, 6 ch, 48 kHz, Dub [iTunes]
Аудио #2: DTS-HD MA, 4770/1509 kbps, 6 ch, 48 kHz, Original [English]
Субтитры: Russian (full), English (full)
Навигация по главам: есть (12)

Сборка: СелезеньS
General
Unique ID : 182580330916606435023155417697720626184 (0x895BB151F57501FD312ED55FAA4E6C08)
Complete name : D:Video111Revolt.2017.BDREMUX.1080p.ExKinoRay.mkv
Format : Matroska
Format version : Version 4 / Version 2
File size : 19.3 GiB
Duration : 1 h 27 min
Overall bit rate mode : Variable
Overall bit rate : 31.7 Mb/s
Movie name : Revolt 2017 from ExKinoRay
Encoded date : UTC 2018-07-26 23:39:38
Writing application : mkvmerge v23.0.0 ('The Bride Said No') 64-bit
Writing library : libebml v1.3.6 + libmatroska v1.4.9

Video
ID : 1
Format : AVC
Format/Info : Advanced Video Codec
Format profile : High@L4.1
Format settings : CABAC / 4 Ref Frames
Format settings, CABAC : Yes
Format settings, ReFrames : 4 frames
Codec ID : V_MPEG4/ISO/AVC
Duration : 1 h 27 min
Bit rate mode : Variable
Bit rate : 26.5 Mb/s
Maximum bit rate : 38.0 Mb/s
Width : 1 920 pixels
Height : 1 080 pixels
Display aspect ratio : 16:9
Frame rate mode : Constant
Frame rate : 23.976 (24000/1001) FPS
Color space : YUV
Chroma subsampling : 4:2:0
Bit depth : 8 bits
Scan type : Progressive
Bits/(Pixel*Frame) : 0.534
Stream size : 16.2 GiB (84%)
Language : English
Default : Yes
Forced : No

Audio #1
ID : 2
Format : AC-3
Format/Info : Audio Coding 3
Codec ID : A_AC3
Duration : 1 h 27 min
Bit rate mode : Constant
Bit rate : 384 kb/s
Channel(s) : 6 channels
Channel positions : Front: L C R, Side: L R, LFE
Sampling rate : 48.0 kHz
Frame rate : 31.250 FPS (1536 SPF)
Bit depth : 16 bits
Compression mode : Lossy
Stream size : 240 MiB (1%)
Title : iTunes
Language : Russian
Service kind : Complete Main
Default : Yes
Forced : Yes

Audio #2
ID : 3
Format : DTS
Format/Info : Digital Theater Systems
Format profile : MA / Core
Codec ID : A_DTS
Duration : 1 h 27 min
Bit rate mode : Variable / Constant
Bit rate : 4 770 kb/s / 1 509 kb/s
Channel(s) : 6 channels
Channel positions : Front: L C R, Side: L R, LFE
Sampling rate : 48.0 kHz
Frame rate : 93.750 FPS (512 SPF)
Bit depth : 24 bits
Compression mode : Lossless / Lossy
Stream size : 2.91 GiB (15%)
Title : Original
Language : English
Default : No
Forced : No

Text #1
ID : 4
Format : UTF-8
Codec ID : S_TEXT/UTF8
Codec ID/Info : UTF-8 Plain Text
Duration : 1 h 21 min
Bit rate : 53 b/s
Count of elements : 590
Stream size : 32.2 KiB (0%)
Title : Full
Language : Russian
Default : No
Forced : No

Text #2
ID : 5
Format : UTF-8
Codec ID : S_TEXT/UTF8
Codec ID/Info : UTF-8 Plain Text
Duration : 1 h 21 min
Bit rate : 29 b/s
Count of elements : 546
Stream size : 17.7 KiB (0%)
Title : Full
Language : English
Default : No
Forced : No

Menu
00:00:00.000 : en:Chapter 1
00:11:27.729 : en:Chapter 2
00:17:25.920 : en:Chapter 3
00:23:08.846 : en:Chapter 4
00:28:13.317 : en:Chapter 5
00:35:12.694 : en:Chapter 6
00:43:15.676 : en:Chapter 7
00:52:20.679 : en:Chapter 8
00:59:06.001 : en:Chapter 9
01:06:07.172 : en:Chapter 10
01:14:04.357 : en:Chapter 11
01:22:54.595 : en:Chapter 12


pic pic pic
Для увеличения картинки щелкните мышкой по превью



pic pic pic pic pic

Этот торрент недоступен для скачивания без регистрации, однако доступен по публичной magnet-ссылке (источники с публичных трекеров). Перед использованием ссылки прочтите, пожалуйста Пользовательское соглашение, а также как можно дольше оставайтесь на раздаче! Для того, чтобы скачать сам торрент-файл (который видит больше источников), а также для того, чтобы поблагодарить релизера, вам необходимо зарегистрироваться. Если регистрироваться лень - вы можете также попробовать скачать релиз по нашим партнерским ссылкам ниже. Кроме того, зарегистрированным пользователям не показывается всплывающая реклама при скачивании.

[underverse.in].t109885.torrent
Трекер: Зарегистрирован   [ 27.07.2018 18:59 ]  

Статус: T временная (by 90ytr90 at 27.07.2018 19:02)
Поблагодарили: пока никто не поблагодарил...
Тип торрента: публичный - доступные источники с открытых трекеров: 
Размер: 19,33 GB (занимает 4,42 DVDR, для записи нужно 5 болванок DVDR/RW)
 
 
Похожие темы
Форум Тема Автор Торрент Отв. Посл. сооб.
Зарубежное кино [DVDRip, Low-Res HDRip, и т.д.] Восстание зомби / Rise of the Zombies (Ник Лион) [2012 г., ужасы, боевик, триллер, HDTVRip] MVO [ViruseProject] RG NewCinema
11 | 0

0 | 1480

49

22.11.2012 20:31

Зарубежное кино [DVDRip, Low-Res HDRip, и т.д.] Восстание андроидов / Android Insurrection (Эндрю Беллвар) [2012 г., фантастика, боевик, DVDRip] MVO RG NewCinema
0 | 0

0 | 1760

74

19.12.2012 05:53

Зарубежное кино [DVDRip, Low-Res HDRip, и т.д.] Восстание планеты обезьян / Rise of the Planet of the Apes (Руперт Уайатт) [2011 г., фантастика, боевик, триллер, драма, HDRip-AVC] Dub + Original 90ytr90
3 | 0

0 | 815

3

25.12.2012 09:13

Зарубежное кино [DVDRip, Low-Res HDRip, и т.д.] Восстание планеты обезьян / Rise of the Planet of the Apes (Руперт Уайатт) [2011 г., фантастика, боевик, триллер, драма, HDRip] Dub 90ytr90
31 | 0

0 | 1245

47

25.12.2012 09:22

Зарубежное кино [DVDRip, Low-Res HDRip, и т.д.] Восстание / Uprising (Джон Эвнет) [2001 г., драма, исторический, военный, DVDRip] VO Паукан
0 | 0

0 | 2393

8

21.11.2013 14:36

T Зарубежное кино [DVDRip, Low-Res HDRip, и т.д.] Восстание / Revolt (Джо Миэйл) [2017 г., фантастика, HDRip] MVO (Синема УС) makkol
2 | 0

0 | 822

47

22.09.2017 11:41

T Зарубежное кино [DVDRip, Low-Res HDRip, и т.д.] Восстание тьмы / Darkness Rising (Остин Ридинг / Austin Reading) [2017 г., ужасы, WEB-DLRip] MVO 90ytr90
9 | 3

0 | 538

4

02.07.2017 16:57

T Зарубежное кино [DVDRip, Low-Res HDRip, и т.д.] Восстание / Revolt (Джо Миэйл / Joe Miale) [2017 г., фантастика, WEB-DLRip] MVO (Синема УС) 90ytr90
26 | 2

0 | 919

13

06.07.2017 09:16

T Зарубежное кино [DVDRip, Low-Res HDRip, и т.д.] Восстание / Revolt (Джо Миэйл) [2017 г., фантастика, боевик, приключения, HDRip] Dub (iTunes) makkol
102 | 0

0 | 354

15

26.07.2018 21:51

T Зарубежное кино [DVDRip, Low-Res HDRip, и т.д.] Восстание / Revolt (Джо Миэйл) [2017 г., фантастика, боевик, приключения, BDRip-AVC] Dub (iTunes) + Original + Sub makkol
21 | 1

0 | 251

9

26.07.2018 21:58


Яндекс.Метрика powered by Sphinx


В Н И М А Н И Е
Сайт не распространяет и не хранит электронные версии произведений, а лишь бесплатно и без коммерческой выгоды (не требуя взамен платы,
SMS и т.д.) предоставляет доступ к создаваемому пользователями каталогу ссылок на торрент-файлы, которые содержат только списки хеш-сумм.
Убедительная просьба с жалобами обращаться напрямую к пользователю, разместившему торрент файл.

Вверх