Loading...
Error

Бабник / Spread (Дэвид МакКензи / David Mackenzie) [2009 г., комедия, драма, BDRip]

Статистика раздачи
Размер:  2,18 GB   |    Зарегистрирован:  6 лет 7 месяцев   |    Скачан:  4 раза

Полного источника не было: 4 года 2 месяца

Сидов:  0  |  0 KB/s  ]   Личеров:  0  |  0 KB/s  ]

* - сиды/пиры с внешних источников

   
 
Автор Сообщение

GUree Пол:Муж

15-Апр-2010 00:07

Бабник / Spread


Год выпуска: 2009
Жанр: комедия, мелодрама
Страна: США
Режиссер: Дэвид МакКензи / David Mackenzie
В ролях: Эштон Катчер, Энн Хеч, Маргарита Левиева, Себастиан Стэн, Соня Роквэлл, Мария Кончита Алонсо, Харт Бокнер, Томас Кийас, Лэндон Эшворт, Шэйн Бролли

Сюжет фильма: Никки молод, неотразим и пользуется безотказным вниманием представительниц противоположного пола. Его роман с Самантой основан исключительно на взаимном интересе. Никки интересует ее кредитная карточка и шикарный особняк, а успешную, но одинокую Саманту — безудержный дикий секс. Но когда Никки встречает Хизер, у циничного жиголо что-то переключается в голове и в сердце…

  • Мировая премьера: Мировая премьера: 17 января 2009
  • Российская премьера: Российская премьера: 6 августа 2009, «Вольга»




Личная оценка: 10 - всем советую

Качество видео: BDRip

Продолжительность: 01:37:04
Видео: кодек: x264, формат: mkv, размер кадра: 1024x432, битрейт: 2259 kbps
Аудио #1: язык: русский, перевод: дублированный (дубляж), кодек: AC3 5.1, битрейт: 448 kbps
Аудио #2: язык: английский, перевод: оригинал, кодек: AC3 5.1, битрейт: 448 kbps
Субтитры #1: тип: вшитые отключаемые, язык: русский, формат: S_TEXT/UTF8
Субтитры #2: тип: вшитые отключаемые, язык: английский, формат: S_TEXT/UTF8

Семпл 1 на multi-up
Семпл 2 на multi-up

Релиз группы:








General
Complete name : Spread.2009.BDRip.AVC.mkv
Format : Matroska
File size : 2.18 GiB
Duration : 1h 37mn
Overall bit rate : 3 220 Kbps
Movie name : -=GUree=-
Encoded date : UTC 2010-04-14 23:54:46
Writing application : mkvmerge v3.2.0 ('Beginnings') built on Feb 12 2010 16:46:17
Writing library : libebml v0.7.9 + libmatroska v0.8.1

Video
ID : 1
Format : AVC
Format/Info : Advanced Video Codec
Format profile : High@L4.1
Format settings, CABAC : Yes
Format settings, ReFrames : 8 frames
Muxing mode : Container profile=Unknown@4.1
Codec ID : V_MPEG4/ISO/AVC
Duration : 1h 36mn
Bit rate : 2 260 Kbps
Nominal bit rate : 2 321 Kbps
Width : 1 024 pixels
Height : 432 pixels
Display aspect ratio : 2.35:1
Frame rate : 23.976 fps
Resolution : 8 bits
Colorimetry : 4:2:0
Scan type : Progressive
Bits/(Pixel*Frame) : 0.213
Stream size : 1.53 GiB (70%)
Writing library : x264 core 92 r1510 33d382a
Encoding settings : cabac=1 / ref=8 / deblock=1:-2:-1 / analyse=0x3:0x113 / me=tesa / subme=10 / psy=1 / psy_rd=1.00:0.40 / mixed_ref=1 / me_range=32 / chroma_me=1 / trellis=2 / 8x8dct=1 / cqm=0 / deadzone=21,11 / fast_pskip=0 / chroma_qp_offset=-4 / threads=6 / sliced_threads=0 / nr=0 / decimate=0 / interlaced=0 / constrained_intra=0 / bframes=6 / b_pyramid=2 / b_adapt=2 / b_bias=0 / direct=3 / wpredb=1 / wpredp=2 / keyint=250 / keyint_min=25 / scenecut=40 / intra_refresh=0 / rc_lookahead=60 / rc=2pass / mbtree=1 / bitrate=2321 / ratetol=1.0 / qcomp=0.60 / qpmin=10 / qpmax=51 / qpstep=4 / cplxblur=20.0 / qblur=0.5 / vbv_maxrate=50000 / vbv_bufsize=50000 / ip_ratio=1.40 / aq=1:1.00 / nal_hrd=none

Audio #1
ID : 2
Format : AC-3
Format/Info : Audio Coding 3
Codec ID : A_AC3
Duration : 1h 37mn
Bit rate mode : Constant
Bit rate : 448 Kbps
Channel(s) : 6 channels
Channel positions : Front: L C R, Side: L R, LFE
Sampling rate : 48.0 KHz
Stream size : 311 MiB (14%)
Title : AC3 5.1 448Kb/s
Language : Russian

Audio #2
ID : 3
Format : AC-3
Format/Info : Audio Coding 3
Codec ID : A_AC3
Duration : 1h 37mn
Bit rate mode : Constant
Bit rate : 448 Kbps
Channel(s) : 6 channels
Channel positions : Front: L C R, Side: L R, LFE
Sampling rate : 48.0 KHz
Stream size : 311 MiB (14%)
Title : AC3 5.1 448Kb/s
Language : English

Text #1
ID : 4
Format : UTF-8
Codec ID : S_TEXT/UTF8
Codec ID/Info : UTF-8 Plain Text
Language : Russian

Text #2
ID : 5
Format : UTF-8
Codec ID : S_TEXT/UTF8
Codec ID/Info : UTF-8 Plain Text
Language : English

Этот торрент недоступен для скачивания без регистрации, однако доступен по публичной magnet-ссылке (источники с публичных трекеров). Перед использованием ссылки прочтите, пожалуйста Пользовательское соглашение, а также как можно дольше оставайтесь на раздаче! Для того, чтобы скачать сам торрент-файл (который видит больше источников), а также для того, чтобы поблагодарить релизера, вам необходимо зарегистрироваться. Если регистрироваться лень - вы можете также попробовать скачать релиз по нашим партнерским ссылкам ниже.

[underverse.su].t9865.torrent
Трекер: Зарегистрирован   [ 15.04.2010 00:07 ]  

Статус: проверено (by GUree at 15.04.2010 00:18)
Поблагодарили: пока никто не поблагодарил...
Тип торрента: публичный - доступные источники с открытых трекеров: 
Размер: 2,18 GB (занимает 1/2 DVDR, для записи нужно 1 болванка DVDR/RW)
 
 
Похожие темы
Форум Тема Автор Торрент Отв. Посл. сооб.
* Архив Бабник / Spread (Дэвид Маккензи) [2009 г., комедия, драма, SatRip] bokalchik

4 | 1002

29.08.2010 23:52

Архив Бабник / Spread ( Дэвид МакКензи) [2009 г., комедия, драма, DVDRip] bokalchik
0 | 0

3 | 1018

53

16.06.2011 08:08



Последний раз редактировалось: GUree (13.07.2010 13:23), всего редактировалось 2 раз(а)

d_pasha Пол:Муж

17-Апр-2010 04:26

Фильм отличный :wink:

AlexJane Пол:Муж

12-Июл-2013 09:02

АУ! ВЕРНИТЕСЬ!

Яндекс.Метрика powered by Sphinx


В Н И М А Н И Е
Сайт не распространяет и не хранит электронные версии произведений, а лишь бесплатно и без коммерческой выгоды (не требуя взамен платы,
SMS и т.д.) предоставляет доступ к создаваемому пользователями каталогу ссылок на торрент-файлы, которые содержат только списки хеш-сумм.
Убедительная просьба с жалобами обращаться напрямую к пользователю, разместившему торрент файл.

Вверх