Loading...
Error

Красотка на всю голову / I Feel Pretty (Эбби Кон / Abby Kohn, Марк Силверштейн / Marc Silverstein) [2018 г., комедия, BDRemux 1080p] MVO (HDRezka Studio) + Original (Eng) + Sub (Eng)

Статистика раздачи
Размер:  28,38 GB   |    Зарегистрирован:  3 месяца   |    Скачан:  3 раза

Полного источника не было: 12 часов

Сидов:  0  |  0 KB/s  ]   Личеров:  0  |  0 KB/s  ]

* - сиды/пиры с внешних источников

   
 
Автор Сообщение

90ytr90 

15-Июл-2018 08:27

Красотка на всю голову / I Feel Pretty
«Change everything Without changing anything»

Страна: Китай, США
Год выпуска: 2018
Жанр: комедия
Продолжительность: 01:50:59
Озвучивание:
  • профессиональное (многоголосое закадровое) [HDRezka Studio]
  • оригинальная звуковая дорожка [английский]

Режиссёр: Эбби Кон / Abby Kohn, Марк Силверштейн / Marc Silverstein

В ролях:
Эми Шумер (Renee Bennett), Мишель Уильямс (Avery LeClaire), Том Хоппер (Grant LeClair), Рори Сковел (Ethan), Адриан Мартинес (Mason), Эмили Ратаковски (Mallory), Эйди Брайант (Vivian), Бизи Филиппс (Jane), Лорен Хаттон (Lily LeClaire), Сашир Замата (Tasha), Angela Davis (Luna), Кэролайн Дэй (Jenn)


Сюжет фильма:
Ее жизнь состояла из вечных попыток сесть на диету или заняться фитнесом. «Попытка засчитана», - подумала Вселенная и скинула бедняжку с велотренажера. Девушка ударяется головой и обретает аномальную уверенность в том, что теперь она просто неотразима. Одна проблема - в глазах других людей она ни капли не изменилась. В общем, красотка на всю голову.

  • Дата мировой премьеры: 19 апреля 2018
  • Дата российской премьеры: 7 июня 2018, «Вольга»
             
Качество видео: BDRemux 1080p
Формат: MKV
Видео: AVC, 1920x1080 (16:9), 34 Mbps, 23.976 fps, 0.684 bit/pixel
Аудио #1: AC3, 384 kbps, 2 ch, 48 kHz, MVO [HDRezka Studio]
Аудио #2: DTS, 1509 kbps, 6 ch, 48 kHz, Original [English]
Субтитры: English (full, SDH)
Навигация по главам: есть (20)

Сборка: zzZGVvv
Формат : Matroska
Версия формата : Version 2
Размер файла : 28,4 Гбайт
Продолжительность : 1 ч. 50 м.
Режим общего битрейта : Переменный
Общий поток : 36,6 Мбит/сек
Название фильма : I.Feel.Pretty.2018.1080p.BluRay.REMUX.by.zzZGVvv
Дата кодирования : UTC 2018-07-15 07:33:05
Программа кодирования : mkvmerge v5.8.0 ('No Sleep / Pillow') built on Sep 2 2012 15:37:04
Библиотека кодирования : libebml v1.2.3 + libmatroska v1.3.0
Attachements : cover.jpg

Видео
Идентификатор : 1
Формат : AVC
Формат/Информация : Advanced Video Codec
Профиль формата : High@L4.1
Параметр CABAC формата : Да
Параметр ReFrames формата : 4 кадра
Идентификатор кодека : V_MPEG4/ISO/AVC
Продолжительность : 1 ч. 50 м.
Вид битрейта : Переменный
Битрейт : 34,0 Мбит/сек
Максимальный битрейт : 39,0 Мбит/сек
Ширина : 1920 пикселей
Высота : 1080 пикселей
Соотношение сторон : 16:9
Режим частоты кадров : Постоянный
Частота кадров : 23,976 кадра/сек
Цветовое пространство : YUV
Субдискретизация насыщенности : 4:2:0
Битовая глубина : 8 бит
Тип развёртки : Прогрессивная
Бит/(Пиксели*Кадры) : 0.684
Размер потока : 26,3 Гбайт (93%)
Заголовок : I.Feel.Pretty.2018.1080p.BluRay.REMUX
Язык : English
Default : Да
Forced : Нет

Аудио #1
Идентификатор : 2
Формат : AC-3
Формат/Информация : Audio Coding 3
Расширение режима : CM (complete main)
Параметр Endianness формата : Big
Идентификатор кодека : A_AC3
Продолжительность : 1 ч. 50 м.
Вид битрейта : Постоянный
Битрейт : 384 Кбит/сек
Каналы : 2 канала
Расположение каналов : Front: L R
Частота : 48,0 КГц
Метод сжатия : С потерями
Размер потока : 305 Мбайт (1%)
Заголовок : MVO [HDRezka Studio]
Язык : Russian
Default : Да
Forced : Нет

Аудио #2
Идентификатор : 3
Формат : DTS
Формат/Информация : Digital Theater Systems
Режим : 16
Параметр Endianness формата : Big
Идентификатор кодека : A_DTS
Продолжительность : 1 ч. 50 м.
Вид битрейта : Постоянный
Битрейт : 1509 Кбит/сек
Каналы : 6 каналов
Расположение каналов : Front: L C R, Side: L R, LFE
Частота : 48,0 КГц
Битовая глубина : 24 бит
Метод сжатия : С потерями
Размер потока : 1,17 Гбайт (4%)
Язык : English
Default : Нет
Forced : Нет

Текст #1
Идентификатор : 4
Формат : UTF-8
Идентификатор кодека : S_TEXT/UTF8
Идентификатор кодека/Информация : UTF-8 Plain Text
Язык : English
Default : Нет
Forced : Нет

Текст #2
Идентификатор : 5
Формат : UTF-8
Идентификатор кодека : S_TEXT/UTF8
Идентификатор кодека/Информация : UTF-8 Plain Text
Заголовок : SDH
Язык : English
Default : Нет
Forced : Нет

Меню
00:00:00.000 : en:Chapter 01
00:07:30.658 : en:Chapter 02
00:13:31.185 : en:Chapter 03
00:20:21.845 : en:Chapter 04
00:25:49.130 : en:Chapter 05
00:30:03.384 : en:Chapter 06
00:34:31.194 : en:Chapter 07
00:38:47.491 : en:Chapter 08
00:44:13.734 : en:Chapter 09
00:47:59.251 : en:Chapter 10
00:53:46.306 : en:Chapter 11
00:58:07.525 : en:Chapter 12
01:04:03.589 : en:Chapter 13
01:11:54.310 : en:Chapter 14
01:19:13.415 : en:Chapter 15
01:27:14.062 : en:Chapter 16
01:31:33.154 : en:Chapter 17
01:37:00.564 : en:Chapter 18
01:44:10.786 : en:Chapter 19
01:46:17.579 : en:Chapter 20


скриншоты



pic pic pic pic

Этот торрент недоступен для скачивания без регистрации, однако доступен по публичной magnet-ссылке (источники с публичных трекеров). Перед использованием ссылки прочтите, пожалуйста Пользовательское соглашение, а также как можно дольше оставайтесь на раздаче! Для того, чтобы скачать сам торрент-файл (который видит больше источников), а также для того, чтобы поблагодарить релизера, вам необходимо зарегистрироваться. Если регистрироваться лень - вы можете также попробовать скачать релиз по нашим партнерским ссылкам ниже. Кроме того, зарегистрированным пользователям не показывается всплывающая реклама при скачивании.

[underverse.in].t108688.torrent
Трекер: Зарегистрирован   [ 15.07.2018 08:27 ]  

Статус: проверено (by 90ytr90 at 15.07.2018 08:28)
Поблагодарили: 1 человек
Тип торрента: публичный - доступные источники с открытых трекеров: 
Размер: 28,38 GB (занимает 6,48 DVDR, для записи нужно 7 болванок DVDR/RW)
 
 
Похожие темы
Форум Тема Автор Торрент Отв. Посл. сооб.
© Зарубежное кино [DVDRip, Low-Res HDRip, и т.д.] Красотка на всю голову / I Feel Pretty (Эбби Кон, Марк Силверштейн) [2018 г., комедия, WEB-DLRip] Dub (звук с TS) makkol
66 | 5
1,37 GB

0 | 1281

25

27.06.2018 20:40

© Зарубежное кино [DVDRip, Low-Res HDRip, и т.д.] Красотка на всю голову / I Feel Pretty (Эбби Кон, Марк Силверштейн) [2018 г., комедия, WEB-DLRip] MVO (@MUZOBOZ@) makkol
131 | 5
1,46 GB

0 | 5859

46

29.06.2018 21:09

© Зарубежное кино [DVDRip, Low-Res HDRip, и т.д.] Красотка на всю голову / I Feel Pretty (Эбби Кон / Abby Kohn, Марк Силверштейн / Marc Silverstein) [2018 г., комедия, HDRip] Dub (чистый звук) 90ytr90
69 | 0
1,46 GB

0 | 1479

42

09.07.2018 15:33

© Зарубежное кино [DVDRip, Low-Res HDRip, и т.д.] Красотка на всю голову / I Feel Pretty (Эбби Кон / Abby Kohn, Марк Силверштейн / Marc Silverstein) [2018 г., комедия, BDRip] MVO (HDRezka Studio) 90ytr90
83 | 5
1,41 GB

0 | 1847

17

13.07.2018 12:33

© Зарубежное кино [DVDRip, Low-Res HDRip, и т.д.] Красотка на всю голову / I Feel Pretty (Эбби Кон / Abby Kohn, Марк Силверштейн / Marc Silverstein) [2018 г., комедия, BDRip-AVC] MVO (HDrezka Studio) + Original (Eng) + Sub (Eng) 90ytr90
14 | 4
1,68 GB

0 | 608

11

14.07.2018 06:56

© Зарубежное кино [DVDRip, Low-Res HDRip, и т.д.] Красотка на всю голову / I Feel Pretty (Эбби Кон / Abby Kohn, Марк Силверштейн / Marc Silverstein) [2018 г., комедия, BDRip] MVO (HDrezka Studio) + Original (Eng) 90ytr90
97 | 3
2,14 GB

0 | 934

9

15.07.2018 07:23

© Зарубежное кино [DVDRip, Low-Res HDRip, и т.д.] Красотка на всю голову / I Feel Pretty (Эбби Кон / Abby Kohn, Марк Силверштейн / Marc Silverstein) [2018 г., комедия, BDRip] Dub (iTunes) 90ytr90
1040 | 18
1,41 GB

0 | 13481

30

24.07.2018 10:02

© Зарубежное кино [DVD / HDDVD / BD / Remux] Красотка на всю голову / I Feel Pretty (Эбби Кон / Abby Kohn, Марк Силверштейн / Marc Silverstein) [2018 г., комедия, BDRemux 1080p] Dub (Rus.iTunes) + Dub (Ukr.iTunes) + Original (Eng) + Sub (Eng) 90ytr90
46 | 10
30,41 GB

0 | 559

5

24.07.2018 10:42

© Зарубежное кино [HDDVDRip / BDRip / WEB-DL / HDTV 1080/720р] Красотка на всю голову / I Feel Pretty (Эбби Кон, Марк Силверштейн) [2018 г., комедия, WEB-DL 720p] Dub (звук с TS) makkol
2 | 3
4,18 GB

0 | 4291

19

27.06.2018 20:45

© Зарубежное кино [HDDVDRip / BDRip / WEB-DL / HDTV 1080/720р] Красотка на всю голову / I Feel Pretty (Эбби Кон, Марк Силверштейн) [2018 г., комедия, WEB-DL 720p] MVO (@MUZOBOZ@) makkol
2 | 3
4,06 GB

0 | 4579

10

29.06.2018 21:18


Яндекс.Метрика powered by Sphinx


В Н И М А Н И Е
Сайт не распространяет и не хранит электронные версии произведений, а лишь бесплатно и без коммерческой выгоды (не требуя взамен платы,
SMS и т.д.) предоставляет доступ к создаваемому пользователями каталогу ссылок на торрент-файлы, которые содержат только списки хеш-сумм.
Убедительная просьба с жалобами обращаться напрямую к пользователю, разместившему торрент файл.

Вверх