Loading...
Error

Мы из будущего 2 (Александр Самохвалов, Борис Ростов) [2010 г., фантастика, боевик, военный, приключения, исторический, BDRip]

Статистика раздачи
Размер:  2,18 GB   |    Зарегистрирован:  6 лет 7 месяцев   |    Скачан:  4 раза

Полного источника не было: 8 месяцев

Сидов:  0  |  0 KB/s  ]   Личеров:  0  |  0 KB/s  ]

* - сиды/пиры с внешних источников

   
 
Автор Сообщение

GUree Пол:Муж

06-Апр-2010 23:56

Мы из будущего 2


Год выпуска: 2010
Жанр: фантастика, боевик, военный, приключения, исторический
Страна: Россия
Режиссер: Александр Самохвалов, Борис Ростов
В ролях: Игорь Петренко, Екатерина Климова, Владимир Яглыч, Алексей Барабаш, Дмитрий Ступка, Иван Краско, Дмитрий Дячук, Владислав Резник, Семен Белоцерковский, Денис Карасев

Сюжет фильма: Они встретились на поле «реконструкции военных событий» и хотели поиграть в войну. Но война решила поиграть с ними…

Герои первой части фильма, Борман и Череп, попадают в 1944 год, и вместе с ними в прошлом оказываются еще двое — молодые украинцы Таран и Серый, «игравшие » в войну на другой стороне. Каждый из них совершит свой подвиг, чтобы вернуться домой и сберечь свое и наше Будущее…


  • Мировая премьера: 18 февраля 2010
  • Российская премьера: 18 февраля 2010, «Централ Партнершип»


Личная оценка: 10 - всем советую

Качество видео: BDRip

Продолжительность: 01:41:28
Видео: кодек: x264, формат: mkv, размер кадра: 1024x432, битрейт: 2561 kbps
Аудио: язык: русский, перевод: оригинал, кодек: AC3 5.1, битрейт: 448 kbps

Семпл 1 на multi-up
Семпл 2 на multi-up

Релиз группы:










General
Complete name : Mi_iz_Buduzchego.2.2010.BDRip.AVC.mkv
Format : Matroska
File size : 2.18 GiB
Duration : 1h 41mn
Overall bit rate : 3 071 Kbps
Movie name : -=GUree=-
Encoded date : UTC 2010-04-06 18:47:12
Writing application : mkvmerge v3.2.0 ('Beginnings') built on Feb 12 2010 16:46:17
Writing library : libebml v0.7.9 + libmatroska v0.8.1

Video
ID : 1
Format : AVC
Format/Info : Advanced Video Codec
Format profile : High@L4.1
Format settings, CABAC : Yes
Format settings, ReFrames : 8 frames
Muxing mode : Container profile=Unknown@4.1
Codec ID : V_MPEG4/ISO/AVC
Duration : 1h 41mn
Bit rate : 2 562 Kbps
Nominal bit rate : 2 627 Kbps
Width : 1 024 pixels
Height : 432 pixels
Display aspect ratio : 2.35:1
Frame rate : 23.976 fps
Resolution : 8 bits
Colorimetry : 4:2:0
Scan type : Progressive
Bits/(Pixel*Frame) : 0.242
Stream size : 1.81 GiB (83%)
Writing library : x264 core 92 r1510 33d382a
Encoding settings : cabac=1 / ref=8 / deblock=1:-2:-1 / analyse=0x3:0x113 / me=tesa / subme=10 / psy=1 / psy_rd=1.00:0.40 / mixed_ref=1 / me_range=32 / chroma_me=1 / trellis=2 / 8x8dct=1 / cqm=0 / deadzone=21,11 / fast_pskip=0 / chroma_qp_offset=-4 / threads=6 / sliced_threads=0 / nr=0 / decimate=0 / interlaced=0 / constrained_intra=0 / bframes=6 / b_pyramid=2 / b_adapt=2 / b_bias=0 / direct=3 / wpredb=1 / wpredp=2 / keyint=250 / keyint_min=25 / scenecut=40 / intra_refresh=0 / rc_lookahead=60 / rc=2pass / mbtree=1 / bitrate=2627 / ratetol=1.0 / qcomp=0.60 / qpmin=10 / qpmax=51 / qpstep=4 / cplxblur=20.0 / qblur=0.5 / vbv_maxrate=50000 / vbv_bufsize=50000 / ip_ratio=1.40 / aq=1:1.00 / nal_hrd=none

Audio
ID : 2
Format : AC-3
Format/Info : Audio Coding 3
Codec ID : A_AC3
Duration : 1h 41mn
Bit rate mode : Constant
Bit rate : 448 Kbps
Channel(s) : 6 channels
Channel positions : Front: L C R, Side: L R, LFE
Sampling rate : 48.0 KHz
Stream size : 325 MiB (15%)
Title : AC3 5.1 448kB/s
Language : Russian

Этот торрент недоступен для скачивания без регистрации, однако доступен по публичной magnet-ссылке (источники с публичных трекеров). Перед использованием ссылки прочтите, пожалуйста Пользовательское соглашение, а также как можно дольше оставайтесь на раздаче! Для того, чтобы скачать сам торрент-файл (который видит больше источников), а также для того, чтобы поблагодарить релизера, вам необходимо зарегистрироваться. Если регистрироваться лень - вы можете также попробовать скачать релиз по нашим партнерским ссылкам ниже.

[underverse.su].t9750.torrent
Трекер: Зарегистрирован   [ 06.04.2010 23:56 ]  

Статус: проверено (by GUree at 07.04.2010 00:17)
Поблагодарили: 1 человек
Тип торрента: публичный - доступные источники с открытых трекеров: 
Размер: 2,18 GB (занимает 1/2 DVDR, для записи нужно 1 болванка DVDR/RW)
 
 
Похожие темы
Форум Тема Автор Торрент Отв. Посл. сооб.
Наше кино [DVDRip, Low-Res HDRip, и т.д.] Мы из будущего 2 (Александр Самохвалов, Борис Ростов) [2010 г., фантастика, боевик, приключения, военный, история,DVDRip] BartSimpson
0 | 0

7 | 1972

128

16.02.2011 17:49

Наше кино [DVDRip, Low-Res HDRip, и т.д.] Мы из будущего 2 (Александр Самохвалов, Борис Ростов) [2010 г., фантастика, боевик, приключения, военный, история,BDRip] maddd
1 | 0

0 | 1194

26

19.03.2010 19:30

Наше кино [DVD / HDDVD / BD / Remux] Мы из будущего (Андрей Малюков) [2008 г.,фантастика, боевик, приключения, военный, история, DVD-9] Bratok
0 | 0

0 | 1317

4

06.03.2010 21:03

Наше кино [DVD / HDDVD / BD / Remux] Мы из будущего 2 (Александр Самохвалов, Борис Ростов) [2010 г., фантастика, боевик, приключения, военный, история, DVD-9] andrej-ku
0 | 0

0 | 1182

20

17.03.2010 03:20

Архив Мы из будущего (Андрей Малюков) [2008 г., фантастика, боевик, приключения, военный, история, DVDRip] sahar49
0 | 0

7 | 1512

16

17.02.2011 14:46


Яндекс.Метрика powered by Sphinx


В Н И М А Н И Е
Сайт не распространяет и не хранит электронные версии произведений, а лишь бесплатно и без коммерческой выгоды (не требуя взамен платы,
SMS и т.д.) предоставляет доступ к создаваемому пользователями каталогу ссылок на торрент-файлы, которые содержат только списки хеш-сумм.
Убедительная просьба с жалобами обращаться напрямую к пользователю, разместившему торрент файл.

Вверх