Loading...
Error

Мистер Черч / Mr. Church (Брюс Бересфорд / Bruce Beresford) [2016 г., драма, комедия, BDRemux 1080p] MVO (СВ Студия) + MVO (FocusStudio) + Original (Eng) + Subs

Статистика раздачи
Размер:  22,34 GB   |    Зарегистрирован:  2 месяца 9 дней   |    Скачан:  4 раза

Полного источника не было: 13 дней

Сидов:  0  |  0 KB/s  ]   Личеров:  0  |  0 KB/s  ]

* - сиды/пиры с внешних источников

   
 
Автор Сообщение

90ytr90 

11-Июл-2018 07:07

Мистер Черч / Mr. Church
«He was the one person she could always count on»

Страна: США
Год выпуска: 2016
Жанр: драма, комедия
Продолжительность: 01:45:22
Озвучивание:
  • профессиональное (многоголосое закадровое) [СВ Студия]
  • профессиональное (многоголосое закадровое) [FocusStudio]
  • оригинальная звуковая дорожка [английский]

Режиссёр: Брюс Бересфорд / Bruce Beresford

В ролях:
Эдди Мёрфи (Henry Church), Бритт Робертсон (Charlie), Наташа МакЭлхоун (Marie), Завьер Сэмюэл (Owen), Люси Фрай (Poppy), Кристиан Мэдсен (Eddie Larson), МакКенна Грейс (Izzy), Натали Кофлин (Young Charlie), Мэдисон Вульф (Young Poppy), Линкольн Мелчер (Young Owen), Кэтлин МакМартин (Mrs. Dickerman), Сара Ширер (Gibby)


Сюжет фильма:
Так случилось, что Мэри Броуди одна воспитывает свою 10-летнюю дочь Шарлотту. Вскоре выяснилось, что женщина больна раком. Её бывший любовник посылает к ней своего повара мистера Черча. Он попросил этого темнокожего кулинара ухаживать за женщиной в ее последние минуты. Черч получил заслуженную зарплату за полгода и дал ему обещание быть с Мэри до самого конца.

  • Дата мировой премьеры: 22 апреля 2016
             
Качество видео: BDRemux 1080p
Формат: MKV
Видео: AVC, 1920x1080 (16:9), 20 Mbps, 23.976 (24000/1001) fps, 0.402 bit/pixel
Аудио #1: DTS-HD MA, 3465/1509 kbps, 6 ch, 48 kHz, MVO [СВ Студия]
Аудио #2: DTS-HD MA, 3465/1509 kbps, 6 ch, 48 kHz, MVO [FocusStudio]
Аудио #3: DTS-HD MA, 3417/1509 kbps, 6 ch, 48 kHz, Original [English]
Субтитры: Russian (full.СВ Студия, full.FWA93), English (full, SDH), Arabic, Greek, Portuguese, Spanish, Swedish
Навигация по главам: есть (16)

Сборка: ylnian


Общее
Уникальный идентификатор : 191375970553494946949926898452916386646 (0x8FF9ABD5E4E22311045066B1EBE4BB56)
Полное имя : E:Mr.Church.2016.BDRemux-ylnian.mkv
Формат : Matroska
Версия формата : Version 4 / Version 2
Размер файла : 22,3 Гбайт
Продолжительность : 1 ч. 45 м.
Режим общего битрейта : Переменный
Общий поток : 30,4 Мбит/сек
Название фильма : Mr.Church.2016.BDRemux-ylnian
Дата кодирования : UTC 2018-06-25 12:42:03
Программа кодирования : mkvmerge v24.0.0 ('Beyond The Pale') 64-bit
Библиотека кодирования : libebml v1.3.6 + libmatroska v1.4.9

Видео
Идентификатор : 1
Формат : AVC
Формат/Информация : Advanced Video Codec
Профиль формата : High@L4.1
Настройки формата : CABAC / 4 Ref Frames
Параметр CABAC формата : Да
Параметр RefFrames формата : 4 кадра
Идентификатор кодека : V_MPEG4/ISO/AVC
Продолжительность : 1 ч. 45 м.
Вид битрейта : Переменный
Битрейт : 20,0 Мбит/сек
Максимальный битрейт : 35,0 Мбит/сек
Ширина : 1920 пикселей
Высота : 1080 пикселей
Соотношение сторон : 16:9
Режим частоты кадров : Постоянный
Частота кадров : 23,976 (24000/1001) кадра/сек
Стандарт вещания : NTSC
Цветовое пространство : YUV
Субдискретизация насыщенности : 4:2:0
Битовая глубина : 8 бит
Тип развёртки : Прогрессивная
Бит/(Пиксели*Кадры) : 0.402
Размер потока : 14,7 Гбайт (66%)
Язык : English
Default : Да
Forced : Нет
Цветовой диапазон : Limited
Основные цвета : BT.709
Характеристики трансфера : BT.709
Коэффициенты матрицы : BT.709

Аудио #1
Идентификатор : 2
Формат : DTS
Формат/Информация : Digital Theater Systems
Профиль формата : MA / Core
Идентификатор кодека : A_DTS
Продолжительность : 1 ч. 45 м.
Вид битрейта : Переменный / Постоянный
Битрейт : 3465 Кбит/сек / 1509 Кбит/сек
Каналы : 6 каналов
Расположение каналов : Front: L C R, Side: L R, LFE
Частота : 48,0 КГц
Частота кадров : 93,750 кадра/сек (512 SPF)
Битовая глубина : 24 бит
Метод сжатия : Без потерь / Lossy
Размер потока : 2,55 Гбайт (11%)
Заголовок : СВ Студия
Язык : Russian
Default : Да
Forced : Да

Аудио #2
Идентификатор : 3
Формат : DTS
Формат/Информация : Digital Theater Systems
Профиль формата : MA / Core
Идентификатор кодека : A_DTS
Продолжительность : 1 ч. 45 м.
Вид битрейта : Переменный / Постоянный
Битрейт : 3465 Кбит/сек / 1509 Кбит/сек
Каналы : 6 каналов
Расположение каналов : Front: L C R, Side: L R, LFE
Частота : 48,0 КГц
Частота кадров : 93,750 кадра/сек (512 SPF)
Битовая глубина : 24 бит
Метод сжатия : Без потерь / Lossy
Размер потока : 2,55 Гбайт (11%)
Заголовок : FocusStudio
Язык : Russian
Default : Нет
Forced : Нет

Аудио #3
Идентификатор : 4
Формат : DTS
Формат/Информация : Digital Theater Systems
Профиль формата : MA / Core
Идентификатор кодека : A_DTS
Продолжительность : 1 ч. 45 м.
Вид битрейта : Переменный / Постоянный
Битрейт : 3417 Кбит/сек / 1509 Кбит/сек
Каналы : 6 каналов
Расположение каналов : Front: L C R, Side: L R, LFE
Частота : 48,0 КГц
Частота кадров : 93,750 кадра/сек (512 SPF)
Битовая глубина : 24 бит
Метод сжатия : Без потерь / Lossy
Размер потока : 2,51 Гбайт (11%)
Язык : English
Default : Нет
Forced : Нет

Текст #1
Идентификатор : 5
Формат : UTF-8
Идентификатор кодека : S_TEXT/UTF8
Идентификатор кодека/Информация : UTF-8 Plain Text
Продолжительность : 1 ч. 37 м.
Битрейт : 112 бит/сек
ElementCount : 1247
Размер потока : 79,7 Кбайт (0%)
Заголовок : СВ Студия
Язык : Russian
Default : Нет
Forced : Нет

Текст #2
Идентификатор : 6
Формат : UTF-8
Идентификатор кодека : S_TEXT/UTF8
Идентификатор кодека/Информация : UTF-8 Plain Text
Продолжительность : 1 ч. 36 м.
Битрейт : 100 бит/сек
ElementCount : 1458
Размер потока : 71,0 Кбайт (0%)
Заголовок : FWA93
Язык : Russian
Default : Нет
Forced : Нет

Текст #3
Идентификатор : 7
Формат : UTF-8
Идентификатор кодека : S_TEXT/UTF8
Идентификатор кодека/Информация : UTF-8 Plain Text
Продолжительность : 1 ч. 36 м.
Битрейт : 61 бит/сек
ElementCount : 1463
Размер потока : 43,4 Кбайт (0%)
Заголовок : English
Язык : English
Default : Нет
Forced : Нет

Текст #4
Идентификатор : 8
Формат : UTF-8
Идентификатор кодека : S_TEXT/UTF8
Идентификатор кодека/Информация : UTF-8 Plain Text
Продолжительность : 1 ч. 37 м.
Битрейт : 68 бит/сек
ElementCount : 1707
Размер потока : 49,0 Кбайт (0%)
Заголовок : English-SDH
Язык : English
Default : Нет
Forced : Нет

Текст #5
Идентификатор : 9
Формат : UTF-8
Идентификатор кодека : S_TEXT/UTF8
Идентификатор кодека/Информация : UTF-8 Plain Text
Продолжительность : 1 ч. 39 м.
Битрейт : 92 бит/сек
ElementCount : 1381
Размер потока : 67,5 Кбайт (0%)
Заголовок : Arabic
Язык : Arabic
Default : Нет
Forced : Нет

Текст #6
Идентификатор : 10
Формат : UTF-8
Идентификатор кодека : S_TEXT/UTF8
Идентификатор кодека/Информация : UTF-8 Plain Text
Продолжительность : 1 ч. 36 м.
Битрейт : 103 бит/сек
ElementCount : 1425
Размер потока : 73,3 Кбайт (0%)
Заголовок : Greek
Язык : Greek
Default : Нет
Forced : Нет

Текст #7
Идентификатор : 11
Формат : UTF-8
Идентификатор кодека : S_TEXT/UTF8
Идентификатор кодека/Информация : UTF-8 Plain Text
Продолжительность : 1 ч. 36 м.
Битрейт : 66 бит/сек
ElementCount : 1468
Размер потока : 47,4 Кбайт (0%)
Заголовок : Portuguese
Язык : Portuguese
Default : Нет
Forced : Нет

Текст #8
Идентификатор : 12
Формат : UTF-8
Идентификатор кодека : S_TEXT/UTF8
Идентификатор кодека/Информация : UTF-8 Plain Text
Продолжительность : 1 ч. 37 м.
Битрейт : 63 бит/сек
ElementCount : 1367
Размер потока : 45,0 Кбайт (0%)
Заголовок : Spanish
Язык : Spanish
Default : Нет
Forced : Нет

Текст #9
Идентификатор : 13
Формат : UTF-8
Идентификатор кодека : S_TEXT/UTF8
Идентификатор кодека/Информация : UTF-8 Plain Text
Продолжительность : 1 ч. 37 м.
Битрейт : 60 бит/сек
ElementCount : 1019
Размер потока : 43,4 Кбайт (0%)
Заголовок : Swedish
Язык : Swedish
Default : Нет
Forced : Нет

Меню
00:00:00.000 : en:Chapter 1
00:06:53.079 : en:Chapter 2
00:14:00.757 : en:Chapter 3
00:19:03.476 : en:Chapter 4
00:25:40.581 : en:Chapter 5
00:32:06.925 : en:Chapter 6
00:39:27.407 : en:Chapter 7
00:45:19.467 : en:Chapter 8
00:52:04.872 : en:Chapter 9
00:58:31.675 : en:Chapter 10
01:05:30.135 : en:Chapter 11
01:12:44.944 : en:Chapter 12
01:19:32.935 : en:Chapter 13
01:24:59.678 : en:Chapter 14
01:31:08.296 : en:Chapter 15
01:38:25.108 : en:Chapter 16


pic pic
Для увеличения картинки щелкните мышкой по превью



pic pic pic pic pic pic pic pic

Этот торрент недоступен для скачивания без регистрации, однако доступен по публичной magnet-ссылке (источники с публичных трекеров). Перед использованием ссылки прочтите, пожалуйста Пользовательское соглашение, а также как можно дольше оставайтесь на раздаче! Для того, чтобы скачать сам торрент-файл (который видит больше источников), а также для того, чтобы поблагодарить релизера, вам необходимо зарегистрироваться. Если регистрироваться лень - вы можете также попробовать скачать релиз по нашим партнерским ссылкам ниже. Кроме того, зарегистрированным пользователям не показывается всплывающая реклама при скачивании.

[underverse.in].t108241.torrent
Трекер: Зарегистрирован   [ 11.07.2018 07:07 ]  

Статус: проверено (by 90ytr90 at 11.07.2018 11:06)
Поблагодарили: пока никто не поблагодарил...
Тип торрента: публичный - доступные источники с открытых трекеров: 
Размер: 22,34 GB (занимает 5,1 DVDR, для записи нужно 6 болванок DVDR/RW)
 
 
Похожие темы
Форум Тема Автор Торрент Отв. Посл. сооб.
T Зарубежное кино [DVDRip, Low-Res HDRip, и т.д.] Мистер Черч / Повар / Mr. Church (Брюс Бересфорд) [2016 г., драма, DVDRip] MVO makkol
51 | 4

0 | 628

29

18.10.2016 22:26

Зарубежное кино [DVDRip, Low-Res HDRip, и т.д.] Мистер Черч / Mr. Church (Брюс Бересфорд / Bruce Beresford) [2016 г., драма, комедия, BDRip-AVC] MVO (СВ Студия) + Original (Eng) + Sub (Rus, Eng) 90ytr90
35 | 0

0 | 156

4

11.07.2018 07:01

Зарубежное кино [DVDRip, Low-Res HDRip, и т.д.] Мистер Черч / Mr. Church (Брюс Бересфорд / Bruce Beresford) [2016 г., драма, комедия, BDRip] MVO (СВ Студия) 90ytr90
45 | 0

0 | 210

6

11.07.2018 07:02

Зарубежное кино [DVDRip, Low-Res HDRip, и т.д.] Мистер Черч / Mr. Church (Брюс Бересфорд / Bruce Beresford) [2016 г., драма, комедия, HDRip] MVO (СВ Студия) 90ytr90
1 | 0

0 | 155

0

11.07.2018 07:04

Зарубежное кино [HDDVDRip / BDRip / WEB-DL / HDTV 1080/720р] Мистер Черч / Mr. Church (Брюс Бересфорд / Bruce Beresford) [2016 г., драма, комедия, BDRip 720p] MVO (СВ Студия) + MVO (FocusStudio) + Original (Eng) + Sub (Rus, Eng) 90ytr90
9 | 0

0 | 147

6

11.07.2018 07:03

Зарубежное кино [HDDVDRip / BDRip / WEB-DL / HDTV 1080/720р] Мистер Черч / Mr. Church (Брюс Бересфорд / Bruce Beresford) [2016 г., драма, комедия, BDRip 1080p] MVO (FocusStudio) + Original (Eng) + Sub (Rus, Eng) 90ytr90
19 | 2

0 | 194

4

11.07.2018 07:04


Яндекс.Метрика powered by Sphinx


В Н И М А Н И Е
Сайт не распространяет и не хранит электронные версии произведений, а лишь бесплатно и без коммерческой выгоды (не требуя взамен платы,
SMS и т.д.) предоставляет доступ к создаваемому пользователями каталогу ссылок на торрент-файлы, которые содержат только списки хеш-сумм.
Убедительная просьба с жалобами обращаться напрямую к пользователю, разместившему торрент файл.

Вверх