Loading...
Error

Снайпер: Оружие возмездия (Александр Ефремов) [2009 г., военный, DVDRip 4х1]

Статистика раздачи
Размер:  2,92 GB   |    Зарегистрирован:  6 лет 8 месяцев   |    Скачан:  4 раза

Полного источника не было: 4 года 10 месяцев

Сидов:  0  |  0 KB/s  ]   Личеров:  0  |  0 KB/s  ]

* - сиды/пиры с внешних источников

   
 
Автор Сообщение

GUree Пол:Муж

29-Мар-2010 21:32

Снайпер: Оружие возмездия


Год выпуска: 2009
Жанр: военный
Страна: Россия , Беларусь
Режиссер: Александр Ефремов
В ролях: Дмитрий Певцов, Мария Миронова, Алина Сергеева, Александр Ефремов, Павел Делонг, Владас Багдонас, Сергей Беляев, Павел Харланчук, Андрей Шилько, Михаил Есьман

Сюжет фильма: В 1942 году под Сталинградом группа старшего лейтенанта Яшина сталкивается с хитрым противником — немецким капитаном Карлом Кляйстом. В подстроенной им ловушке погибает девушка-снайпер Алеся Микулич, а сам Яшин получает тяжелое ранение.

  • Мировая премьера: 9 мая 2009


Личная оценка: 10 - всем советую

Качество видео: DVDRip

Продолжительность: 4 ~ 44,25 мин (177 мин)(02:56:40)
Видео: кодек: x264, формат: mkv, размер кадра: 720x576@1024x576, битрейт: 1935 kbps
Аудио: язык: русский, перевод: оригинал, кодек: AC3 5.1, битрейт: 384 kbps

Семпл 1 на multi-up; Семпл 1 на dump
Семпл 2 на multi-up; Семпл 2 на dump

Релиз группы:






General
Complete name : Snayper.Oruzjie_vozmezdiya.2009.DVDRip.AVC.mkv
Format : Matroska
File size : 2.92 GiB
Duration : 2h 56mn
Overall bit rate : 2 367 Kbps
Movie name : GUree
Encoded date : UTC 2010-03-26 16:15:27
Writing application : mkvmerge v3.2.0 ('Beginnings') built on Feb 12 2010 16:46:17
Writing library : libebml v0.7.9 + libmatroska v0.8.1

Video
ID : 1
Format : AVC
Format/Info : Advanced Video Codec
Format profile : High@L4.1
Format settings, CABAC : Yes
Format settings, ReFrames : 10 frames
Muxing mode : Container profile=Unknown@4.1
Codec ID : V_MPEG4/ISO/AVC
Duration : 2h 56mn
Bit rate : 1 936 Kbps
Nominal bit rate : 1 981 Kbps
Width : 720 pixels
Height : 576 pixels
Display aspect ratio : 16:9
Frame rate : 25.000 fps
Standard : PAL
Resolution : 8 bits
Colorimetry : 4:2:0
Scan type : Progressive
Bits/(Pixel*Frame) : 0.187
Stream size : 2.39 GiB (82%)
Writing library : x264 core 79 r1342kMod e8501ef
Encoding settings : cabac=1 / ref=10 / deblock=1:-2:-1 / analyse=0x3:0x113 / me=tesa / subme=10 / psy=1 / psy_rd=1.0:0.4 / mixed_ref=1 / me_range=32 / chroma_me=1 / trellis=2 / 8x8dct=1 / cqm=0 / deadzone=21,11 / chroma_qp_offset=-4 / threads=6 / nr=0 / decimate=0 / mbaff=0 / constrained_intra=0 / bframes=8 / b_pyramid=0 / b_adapt=2 / b_bias=0 / direct=3 / wpredb=1 / wpredp=2 / keyint=250 / keyint_min=25 / scenecut=40 / rc_lookahead=60 / rc=2pass / mbtree=1 / bitrate=1981 / ratetol=1.0 / qcomp=0.60 / qpmin=10 / qpmax=51 / qpstep=4 / cplxblur=20.0 / qblur=0.5 / vbv_maxrate=50000 / vbv_bufsize=50000 / ip_ratio=1.40 / aq=1:1.00
Language : English

Audio
ID : 2
Format : AC-3
Format/Info : Audio Coding 3
Codec ID : A_AC3
Duration : 2h 56mn
Bit rate mode : Constant
Bit rate : 384 Kbps
Channel(s) : 6 channels
Channel positions : Front: L C R, Side: L R, LFE
Sampling rate : 48.0 KHz
Stream size : 485 MiB (16%)
Title : AC3 5.1 384Kb/s
Language : Russian

Этот торрент недоступен для скачивания без регистрации, однако доступен по публичной magnet-ссылке (источники с публичных трекеров). Перед использованием ссылки прочтите, пожалуйста Пользовательское соглашение, а также как можно дольше оставайтесь на раздаче! Для того, чтобы скачать сам торрент-файл (который видит больше источников), а также для того, чтобы поблагодарить релизера, вам необходимо зарегистрироваться. Если регистрироваться лень - вы можете также попробовать скачать релиз по нашим партнерским ссылкам ниже.

[underverse.su].t9654.torrent
Трекер: Зарегистрирован   [ 29.03.2010 21:32 ]  

Статус: проверено (by GUree at 29.03.2010 21:34)
Поблагодарили: 3 человека
Тип торрента: публичный - доступные источники с открытых трекеров: 
Размер: 2,92 GB (занимает 0,67 DVDR, для записи нужно 1 болванка DVDR/RW)
 
 
Похожие темы
Форум Тема Автор Торрент Отв. Посл. сооб.
Наше кино [DVDRip, Low-Res HDRip, и т.д.] Снайпер: Оружие возмездия (Александр Ефремов) [2009 г., Военный, DVDRip] StormX
0 | 0

5 | 1931

78

23.02.2010 07:27



Последний раз редактировалось: GUree (13.07.2010 13:28), всего редактировалось 3 раз(а)

GanibalKing Пол:Муж

30-Мар-2010 14:32

класс, всем советую :good: :Bravo: :beer:

skvorets2 Пол:Муж

09-Май-2010 19:21

Спасибо!
пытаюсь забрать, да вот нет никого...

добавлено спустя 4 минуты 5 секунд:

пошел качать на рутрек

Яндекс.Метрика powered by Sphinx


В Н И М А Н И Е
Сайт не распространяет и не хранит электронные версии произведений, а лишь бесплатно и без коммерческой выгоды (не требуя взамен платы,
SMS и т.д.) предоставляет доступ к создаваемому пользователями каталогу ссылок на торрент-файлы, которые содержат только списки хеш-сумм.
Убедительная просьба с жалобами обращаться напрямую к пользователю, разместившему торрент файл.

Вверх