Loading...
Error

О чём говорят мужчины (Дмитрий Дьяченко) [2010 г., комедия, BDRip]

Статистика раздачи
Размер:  2,18 GB   |    Зарегистрирован:  6 лет 7 месяцев   |    Скачан:  2 раза

Полного источника не было: 4 года 8 месяцев

Сидов:  0  |  0 KB/s  ]   Личеров:  0  |  0 KB/s  ]

* - сиды/пиры с внешних источников

   
 
Автор Сообщение

GUree Пол:Муж

29-Мар-2010 20:51

О чём говорят мужчины


Год выпуска: 2010
Жанр: комедия
Страна: Россия
Режиссер: Дмитрий Дьяченко
В ролях: Леонид Барац, Ростислав Хаит, Александр Демидов, Камиль Ларин, Нонна Гришаева, Нина Русланова, Сергей Никоненко, Федор Добронравов, Анна Касаткина-Барац, Жанна Фриске

Сюжет фильма: О чем говорят мужчины? Конечно, о женщинах. Нет, еще о работе, о деньгах, о машинах, о футболе,… но в основном, все-таки, о женщинах. А уж если у них впереди два дня, которые они, вырвавшись из офисов и семей, уехав от всех забот и обязательств, проведут в дороге — два дня, насыщенные событиями и приключениями — то можете быть уверены, что за это время они успеют обсудить немало тем… И еще. Из этих разговоров — это мы точно знаем — многие женщины узнают о себе очень много нового…

  • Мировая премьера: 4 марта 2010
  • Российская премьера: 4 марта 2010, «Централ Партнершип»


Личная оценка: 10 - всем советую

Качество видео: BDRip

Продолжительность: 01:36:32
Видео: кодек: x264, формат: mkv, размер кадра: 1024x552, битрейт: 2720 kbps
Аудио: язык: русский, перевод: , кодек: AC3 5.1, битрейт: 448 kbps
Субтитры: тип: вшитые отключаемые, язык: русский, формат: S_TEXT/UTF8

Семпл 1 на multi-up
Семпл 2 на multi-up

Релиз группы:








General
Complete name : O.chem.govoryat.muzchiny.2010.BDRip.AVC.mkv
Format : Matroska
File size : 2.18 GiB
Duration : 1h 36mn
Overall bit rate : 3 233 Kbps
Movie name : -=GUree=-
Encoded date : UTC 2010-04-29 05:10:13
Writing application : mkvmerge v3.3.0 ('Language') строится на Apr 12 2010 10:07:49
Writing library : libebml v0.8.0 + libmatroska v0.9.0

Video
ID : 1
Format : AVC
Format/Info : Advanced Video Codec
Format profile : High@L4.1
Format settings, CABAC : Yes
Format settings, ReFrames : 8 frames
Muxing mode : Container profile=Unknown@4.1
Codec ID : V_MPEG4/ISO/AVC
Duration : 1h 36mn
Bit rate : 2 720 Kbps
Nominal bit rate : 2 784 Kbps
Width : 1 024 pixels
Height : 552 pixels
Display aspect ratio : 1.855
Frame rate : 24.000 fps
Resolution : 8 bits
Colorimetry : 4:2:0
Scan type : Progressive
Bits/(Pixel*Frame) : 0.201
Stream size : 1.83 GiB (84%)
Writing library : x264 core 92 r1510 33d382a
Encoding settings : cabac=1 / ref=8 / deblock=1:-2:-1 / analyse=0x3:0x113 / me=tesa / subme=10 / psy=1 / psy_rd=1.00:0.40 / mixed_ref=1 / me_range=32 / chroma_me=1 / trellis=2 / 8x8dct=1 / cqm=0 / deadzone=21,11 / fast_pskip=0 / chroma_qp_offset=-4 / threads=6 / sliced_threads=0 / nr=0 / decimate=0 / interlaced=0 / constrained_intra=0 / bframes=6 / b_pyramid=2 / b_adapt=2 / b_bias=0 / direct=3 / wpredb=1 / wpredp=2 / keyint=250 / keyint_min=25 / scenecut=40 / intra_refresh=0 / rc_lookahead=60 / rc=2pass / mbtree=1 / bitrate=2784 / ratetol=1.0 / qcomp=0.60 / qpmin=10 / qpmax=51 / qpstep=4 / cplxblur=20.0 / qblur=0.5 / vbv_maxrate=50000 / vbv_bufsize=50000 / ip_ratio=1.40 / aq=1:1.00 / nal_hrd=none

Audio
ID : 2
Format : AC-3
Format/Info : Audio Coding 3
Format_Settings_ModeExtension : CM (complete main)
Codec ID : A_AC3
Duration : 1h 36mn
Bit rate mode : Constant
Bit rate : 448 Kbps
Channel(s) : 6 channels
Channel positions : Front: L C R, Side: L R, LFE
Sampling rate : 48.0 KHz
Stream size : 309 MiB (14%)
Title : AC3 5.1 448Kb/s
Language : Russian

Text
ID : 3
Format : UTF-8
Codec ID : S_TEXT/UTF8
Codec ID/Info : UTF-8 Plain Text
Language : Russian

Этот торрент недоступен для скачивания без регистрации, однако доступен по публичной magnet-ссылке (источники с публичных трекеров). Перед использованием ссылки прочтите, пожалуйста Пользовательское соглашение, а также как можно дольше оставайтесь на раздаче! Для того, чтобы скачать сам торрент-файл (который видит больше источников), а также для того, чтобы поблагодарить релизера, вам необходимо зарегистрироваться. Если регистрироваться лень - вы можете также попробовать скачать релиз по нашим партнерским ссылкам ниже.

[underverse.su].t9653.torrent
Трекер: Зарегистрирован   [ 29.04.2010 05:28 ]  

Статус: проверено (by GUree at 29.04.2010 05:36)
Поблагодарили: 1 человек
Тип торрента: публичный - доступные источники с открытых трекеров: 
Размер: 2,18 GB (занимает 1/2 DVDR, для записи нужно 1 болванка DVDR/RW)
 
 
Похожие темы
Форум Тема Автор Торрент Отв. Посл. сооб.
Зарубежное кино [DVDRip, Low-Res HDRip, и т.д.] О чем говорят французские мужчины / Les Hommes а Lunettes (Эрик Ле Рош) [2012 г., комедия, DVDRip] MVO 90ytr90
1 | 0

0 | 1354

27

25.11.2012 20:11

* Зарубежное кино [DVDRip, Low-Res HDRip, и т.д.] О чем говорят французские мужчины / Les Hommes a Lunettes (Эрик Ле Рош) [2012 г., комедия, DVDRip] MVO Garnett

0 | 764

28.11.2012 17:14

Наше кино [DVDRip, Low-Res HDRip, и т.д.] О чём говорят мужчины (Дмитрий Дьяченко) [2010 г., комедия, DVDRip] BartSimpson
0 | 1

2 | 2816

75

13.09.2011 04:17

Наше кино HQ О чём говорят мужчины (Дмитрий Дьяченко) [2010 г., комедия, BDRip] Паукан
0 | 1

4 | 1787

10

05.02.2012 16:02

Архив О чём говорят мужчины (Дмитрий Дьяченко) [2010 г., комедия, DVDRip] Zver-Mix
0 | 0

4 | 1158

31

16.06.2011 08:08

Архив О чём говорят мужчины (Дмитрий Дьяченко) [2010 г., комедия, DVD-9] andrej-ku
0 | 0

5 | 1199

5

12.11.2010 23:48



Последний раз редактировалось: GUree (13.07.2010 13:26), всего редактировалось 5 раз(а)

ракетчик Пол:Муж

04-Апр-2010 07:58

спасибо :good:

Яндекс.Метрика powered by Sphinx


В Н И М А Н И Е
Сайт не распространяет и не хранит электронные версии произведений, а лишь бесплатно и без коммерческой выгоды (не требуя взамен платы,
SMS и т.д.) предоставляет доступ к создаваемому пользователями каталогу ссылок на торрент-файлы, которые содержат только списки хеш-сумм.
Убедительная просьба с жалобами обращаться напрямую к пользователю, разместившему торрент файл.

Вверх