Loading...
Error

Волга-Волга (Григорий Александров) [1938 г., комедия, мьюзикл, DVDRip]

Статистика раздачи
Размер:  2,18 GB   |    Зарегистрирован:  6 лет 8 месяцев   |    Скачан:  1 раз

Полного источника не было: 4 года 10 месяцев

Сидов:  0  |  0 KB/s  ]   Личеров:  0  |  0 KB/s  ]

* - сиды/пиры с внешних источников

   
 
Автор Сообщение

GUree Пол:Муж

27-Мар-2010 02:06

Волга-Волга


Год выпуска: 1938
Жанр: комедия, мьюзикл
Страна: СССР ,
Режиссер: Григорий Александров
В ролях: Игорь Ильинский, Любовь Орлова, Павел Оленев, Андрей Тутышкин, Сергей Антимонов, Владимир Володин, Мария Миронова, Всеволод Санаев, Эммануил Геллер, Никита Кондратьев...

Сюжет фильма: Начальник управления мелкой кустарной промышленности Бывалов мечтает о службе в Москве. Он получает распоряжение подготовить к всесоюзному смотру участников художественной самодеятельности. Бывалов считает, что посылать в Москву некого, несмотря на то, что в городе есть два творческих коллектива. В конце концов каждая группа отправляется по Волге в столицу своим путем.

  • Мировая премьера: 24 апреля 1938


Личная оценка: 10 - всем советую

Качество видео: DVDRip

Продолжительность: 01:39:00
Видео: кодек: x264, формат: mkv, размер кадра: 720x576, битрейт: 1892 kbps
Аудио #1: язык: русский, перевод: оригинал, кодек: AC3 5.1, битрейт: 448 kbps
Аудио #2: язык: русский, перевод: оригинал, кодек: DTS 5.1, битрейт: 754 kbps

Семпл 1 на multi-up; Семпл 1 на dump
Семпл 2 на multi-up; Семпл 2 на dump

Релиз группы:








General
Complete name : Voiga-Volga.1938.DVDRip.AVC.mkv
Format : Matroska
File size : 2.18 GiB
Duration : 1h 39mn
Overall bit rate : 3 158 Kbps
Movie name : -=GUree=-
Encoded date : UTC 2010-03-04 16:21:45
Writing application : mkvmerge v3.2.0 ('Beginnings') built on Feb 12 2010 16:46:17
Writing library : libebml v0.7.9 + libmatroska v0.8.1

Video
ID : 1
Format : AVC
Format/Info : Advanced Video Codec
Format profile : High@L4.1
Format settings, CABAC : Yes
Format settings, ReFrames : 10 frames
Muxing mode : Container profile=Unknown@4.1
Codec ID : V_MPEG4/ISO/AVC
Duration : 1h 39mn
Bit rate : 1 893 Kbps
Nominal bit rate : 1 953 Kbps
Width : 720 pixels
Height : 576 pixels
Display aspect ratio : 4:3
Frame rate : 25.000 fps
Standard : PAL
Resolution : 8 bits
Colorimetry : 4:2:0
Scan type : Progressive
Bits/(Pixel*Frame) : 0.183
Stream size : 1.31 GiB (60%)
Writing library : x264 core 79 r1342kMod e8501ef
Encoding settings : cabac=1 / ref=10 / deblock=1:-2:-1 / analyse=0x3:0x113 / me=tesa / subme=10 / psy=1 / psy_rd=1.0:0.4 / mixed_ref=1 / me_range=32 / chroma_me=1 / trellis=2 / 8x8dct=1 / cqm=0 / deadzone=21,11 / chroma_qp_offset=-4 / threads=6 / nr=0 / decimate=0 / mbaff=0 / constrained_intra=0 / bframes=8 / b_pyramid=0 / b_adapt=2 / b_bias=0 / direct=3 / wpredb=1 / wpredp=2 / keyint=250 / keyint_min=25 / scenecut=40 / rc_lookahead=60 / rc=2pass / mbtree=1 / bitrate=1953 / ratetol=1.0 / qcomp=0.60 / qpmin=10 / qpmax=51 / qpstep=4 / cplxblur=20.0 / qblur=0.5 / vbv_maxrate=50000 / vbv_bufsize=50000 / ip_ratio=1.40 / aq=1:1.00

Audio #1
ID : 2
Format : AC-3
Format/Info : Audio Coding 3
Codec ID : A_AC3
Duration : 1h 39mn
Bit rate mode : Constant
Bit rate : 448 Kbps
Channel(s) : 6 channels
Channel positions : Front: L C R, Side: L R, LFE
Sampling rate : 48.0 KHz
Stream size : 317 MiB (14%)
Title : AC3 5.1 448kB/S
Language : Russian

Audio #2
ID : 3
Format : DTS
Format/Info : Digital Theater Systems
Codec ID : A_DTS
Duration : 1h 39mn
Bit rate mode : Constant
Bit rate : 755 Kbps
Channel(s) : 6 channels
Channel positions : Front: L C R, Side: L R, LFE
Sampling rate : 48.0 KHz
Resolution : 24 bits
Stream size : 534 MiB (24%)
Title : DTS 5.1 755Kb/s
Language : Russian

Этот торрент недоступен для скачивания без регистрации, однако доступен по публичной magnet-ссылке (источники с публичных трекеров). Перед использованием ссылки прочтите, пожалуйста Пользовательское соглашение, а также как можно дольше оставайтесь на раздаче! Для того, чтобы скачать сам торрент-файл (который видит больше источников), а также для того, чтобы поблагодарить релизера, вам необходимо зарегистрироваться. Если регистрироваться лень - вы можете также попробовать скачать релиз по нашим партнерским ссылкам ниже.

[underverse.su].t9621.torrent
Трекер: Зарегистрирован   [ 27.03.2010 02:06 ]  

Статус: проверено (by GUree at 27.03.2010 04:26)
Поблагодарили: пока никто не поблагодарил...
Тип торрента: публичный - доступные источники с открытых трекеров: 
Размер: 2,18 GB (занимает 1/2 DVDR, для записи нужно 1 болванка DVDR/RW)
 
 
Похожие темы
Форум Тема Автор Торрент Отв. Посл. сооб.
Кино СССР Волга-Волга (Григорий Александров) [1938 г., мюзикл, комедия, DVDRip-AVC] RG NewCinema
2 | 1

0 | 1196

19

13.12.2012 18:50

Наше кино [DVD / HDDVD / BD / Remux] Волга-Волга (цветное изображение) (Григорий Александров) [1938 г., комедия, DVD-9] Bratok
1 | 0

4 | 1626

2

08.02.2013 18:51


Яндекс.Метрика powered by Sphinx


В Н И М А Н И Е
Сайт не распространяет и не хранит электронные версии произведений, а лишь бесплатно и без коммерческой выгоды (не требуя взамен платы,
SMS и т.д.) предоставляет доступ к создаваемому пользователями каталогу ссылок на торрент-файлы, которые содержат только списки хеш-сумм.
Убедительная просьба с жалобами обращаться напрямую к пользователю, разместившему торрент файл.

Вверх