Loading...
Error

(Rock) Машина Времени - Десять лет спустя (1997) [FLAC (Image+.CUE), Lossless]

Статистика раздачи
Размер:  285 MB   |    Зарегистрирован:  4 месяца 3 дня   |    Скачан:  5 раз
Сидов:  1  |  0 KB/s  ]   Личеров:  0  |  0 KB/s  ]

* - сиды/пиры с внешних источников

   
 
Автор Сообщение

Бишеп Пол:Муж

13-Июн-2018 13:39

Машина Времени - Десять лет спустя

Жанр: Rock
Год выпуска: 1997
Источник: CD
Производитель диска: Sintez Records - SRCD 00057
Аудиокодек: FLAC
Тип рипа: Image+.CUE
Битрейт аудио: lossless
Продолжительность: 00:30:45


Треклист:
01. Поворот
02. Наш дом
03. Ты или я
04. Флаг над замком
05. Марионетки
06. Старый корабль
07. Родной дом
08. Скачки
09. Самая тихая песня

Код:

Exact Audio Copy V1.3 from 2. September 2016

EAC extraction logfile from 6. April 2017, 9:56

Машина Времени / Десять лет спустя

Used drive  : TSSTcorpCDDVDW SH-224DB   Adapter: 0  ID: 1

Read mode               : Secure
Utilize accurate stream : Yes
Defeat audio cache      : Yes
Make use of C2 pointers : No

Read offset correction                      : 6
Overread into Lead-In and Lead-Out          : No
Fill up missing offset samples with silence : Yes
Delete leading and trailing silent blocks   : No
Null samples used in CRC calculations       : Yes
Used interface                              : Installed external ASPI interface

Used output format              : User Defined Encoder
Selected bitrate                : 1024 kBit/s
Quality                         : High
Add ID3 tag                     : No
Command line compressor         : D:\Program Files\Exact Audio Copy\Flac\flac.exe
Additional command line options : -V -8 -T "Genre=%genre%" -T "Artist=%artist%" -T "Title=%title%" -T "Album=%albumtitle%" -T "Date=%year%" -T "Tracknumber=%tracknr%" -T "Comment=%comment%" %source%

TOC of the extracted CD

     Track |   Start  |  Length  | Start sector | End sector
    ---------------------------------------------------------
        1  |  0:00.00 |  3:40.67 |         0    |    16566   
        2  |  3:40.67 |  3:36.25 |     16567    |    32791   
        3  |  7:17.17 |  4:25.20 |     32792    |    52686   
        4  | 11:42.37 |  2:52.45 |     52687    |    65631   
        5  | 14:35.07 |  4:14.60 |     65632    |    84741   
        6  | 18:49.67 |  3:16.13 |     84742    |    99454   
        7  | 22:06.05 |  4:29.62 |     99455    |   119691   
        8  | 26:35.67 |  3:02.58 |    119692    |   133399   
        9  | 29:38.50 |  1:06.62 |    133400    |   138411   

Range status and errors

Selected range

     Filename D:\Desktop\Машина Времени - Десять лет спустя (1997)\Машина Времени - Десять лет спустя.wav

     Peak level 100.0 %
     Extraction speed 2.7 X
     Range quality 100.0 %
     Test CRC 0B0054A4
     Copy CRC 0B0054A4
     Copy OK

No errors occurred

 
AccurateRip summary
 
Track  1  accurately ripped (confidence 2)  [99286CF1]  (AR v2)
Track  2  accurately ripped (confidence 4)  [1CBBBC9E]  (AR v1)
Track  3  accurately ripped (confidence 2)  [C5AC0372]  (AR v2)
Track  4  accurately ripped (confidence 4)  [5A9926B8]  (AR v1)
Track  5  accurately ripped (confidence 2)  [C3E0E831]  (AR v2)
Track  6  accurately ripped (confidence 2)  [8AB0B589]  (AR v2)
Track  7  accurately ripped (confidence 2)  [3981D6B0]  (AR v2)
Track  8  accurately ripped (confidence 2)  [E8471E87]  (AR v2)
Track  9  accurately ripped (confidence 2)  [2BA91BC8]  (AR v2)
 
All tracks accurately ripped

End of status report

==== Log checksum 0241F999318B6E35CFAE71AB1DDFCC83A3888FB07507A604DFF9548EEE918588 ====

Код:

REM GENRE Rock
REM DATE 1996
REM DISCID 73073509
REM COMMENT "ExactAudioCopy v1.3"
PERFORMER "Машина Времени"
TITLE "Десять лет спустя"
REM COMPOSER ""
FILE "Машина Времени - Десять лет спустя.flac" WAVE
  TRACK 01 AUDIO
    TITLE "Поворот"
    PERFORMER "Машина Времени"
    REM COMPOSER ""
    INDEX 01 00:00:00
  TRACK 02 AUDIO
    TITLE "Наш дом"
    PERFORMER "Машина Времени"
    REM COMPOSER ""
    INDEX 00 03:40:12
    INDEX 01 03:40:67
  TRACK 03 AUDIO
    TITLE "Ты или я"
    PERFORMER "Машина Времени"
    REM COMPOSER ""
    INDEX 00 07:17:00
    INDEX 01 07:17:17
  TRACK 04 AUDIO
    TITLE "Флаг над замком"
    PERFORMER "Машина Времени"
    REM COMPOSER ""
    INDEX 00 11:41:50
    INDEX 01 11:42:37
  TRACK 05 AUDIO
    TITLE "Марионетки"
    PERFORMER "Машина Времени"
    REM COMPOSER ""
    INDEX 00 14:34:50
    INDEX 01 14:35:07
  TRACK 06 AUDIO
    TITLE "Старый корабль"
    PERFORMER "Машина Времени"
    REM COMPOSER ""
    INDEX 00 18:49:37
    INDEX 01 18:49:67
  TRACK 07 AUDIO
    TITLE "Родной дом"
    PERFORMER "Машина Времени"
    REM COMPOSER ""
    INDEX 00 22:05:50
    INDEX 01 22:06:05
  TRACK 08 AUDIO
    TITLE "Скачки"
    PERFORMER "Машина Времени"
    REM COMPOSER ""
    INDEX 00 26:35:25
    INDEX 01 26:35:67
  TRACK 09 AUDIO
    TITLE "Самая тихая песня"
    PERFORMER "Машина Времени"
    REM COMPOSER ""
    INDEX 00 29:38:25
    INDEX 01 29:38:50

Этот торрент недоступен для скачивания без регистрации, однако доступен по публичной magnet-ссылке (источники с публичных трекеров). Перед использованием ссылки прочтите, пожалуйста Пользовательское соглашение, а также как можно дольше оставайтесь на раздаче! Для того, чтобы скачать сам торрент-файл (который видит больше источников), а также для того, чтобы поблагодарить релизера, вам необходимо зарегистрироваться. Если регистрироваться лень - вы можете также попробовать скачать релиз по нашим партнерским ссылкам ниже. Кроме того, зарегистрированным пользователям не показывается всплывающая реклама при скачивании.

[underverse.in].t106263.torrent
Трекер: Зарегистрирован   [ 13.06.2018 13:39 ]  

Статус: проверено (by Бишеп at 13.06.2018 13:41)
Поблагодарили: 1 человек
Тип торрента: публичный - доступные источники с открытых трекеров: 
Размер: 285 MB (занимает 0,06 DVDR, для записи нужно 1 болванка DVDR/RW)
 
 
Похожие темы
Форум Тема Автор Торрент Отв. Посл. сооб.
Отечественный Hard, Progressive, Melodic, AOR (Lossless) (Rock) Машина Времени - Медленная хорошая музыка (1996) [FLAC (Image+.CUE), Lossless] Бишеп
1 | 0

0 | 1436

16

24.10.2012 06:14

Отечественный Hard, Progressive, Melodic, AOR (Lossless) (Rock) Машина Времени - Картонные крылья любви (1996) [FLAC (Image+.CUE), Lossless] Бишеп
1 | 0

0 | 1324

8

19.11.2012 07:53

Отечественный Hard, Progressive, Melodic, AOR (Lossless) (Rock) Машина Времени - Отрываясь (1997) [FLAC (Image+.CUE), Lossless] Бишеп
1 | 0

0 | 1282

10

20.11.2012 08:27

Отечественный Hard, Progressive, Melodic, AOR (Lossless) (Rock) Машина Времени - Внештатный Командир Земли (Блюзы Эль-Мокамбо) (1996) [FLAC (Image+.CUE), Lossless] Бишеп
1 | 0

0 | 1054

12

20.11.2012 09:21

Отечественный Hard, Progressive, Melodic, AOR (Lossless) (Rock) Машина Времени и Воскресение - 50 на двоих (2 CD) (2001) [FLAC (Image+.CUE), Lossless] Бишеп
1 | 0

0 | 1664

6

26.11.2012 16:50

Отечественный Hard, Progressive, Melodic, AOR (Lossless) (Rock) Машина Времени - Москва - Ленинград. Архив записей с магнитных лент (2010) [FLAC (Image+.CUE) Lossless] Бишеп
1 | 0

0 | 2082

21

02.07.2013 07:45


Яндекс.Метрика powered by Sphinx


В Н И М А Н И Е
Сайт не распространяет и не хранит электронные версии произведений, а лишь бесплатно и без коммерческой выгоды (не требуя взамен платы,
SMS и т.д.) предоставляет доступ к создаваемому пользователями каталогу ссылок на торрент-файлы, которые содержат только списки хеш-сумм.
Убедительная просьба с жалобами обращаться напрямую к пользователю, разместившему торрент файл.

Вверх