Loading...
Error

Кукла / The Boy (Уильям Брент Белл) [ 2016 г., Ужасы, триллер, BDRip 1080p] Dub + Original + Sub

Статистика раздачи
Размер:  12,13 GB   |    Зарегистрирован:  6 дней   |    Скачан:  3 раза

Полного источника не было: 16 часов

Сидов:  0  |  0 KB/s  ]   Личеров:  0  |  0 KB/s  ]

* - сиды/пиры с внешних источников

   
 
Автор Сообщение

90ytr90 

16-Май-2018 07:01

Кукла / The Boy
Информация о фильме
Название: Кукла
Оригинальное название: The Boy
Год выхода: 2016
Жанр: Ужасы, триллер
Режиссёр: Уильям Брент Белл

В ролях: Лорен Коэн, Руперт Эванс, Джеймс Расселл, Джим Нортон (I), Диана Хардкэсл, Бен Робсон, Джетт Клине, Стефани Николь Лемелин
imdb
О фильме: Благополучная английская семья нанимает для своего сына американскую няню. Приехав на новое место работы, няня обнаруживает, что ее подопечный — вовсе не настоящий мальчик, а кукла в человеческий рост, с которой обращаются, как с живым человеком. Но тревожные события, происходящие после того, как няня нарушает установленные строгие правила, заставляют её поверить в то, что кукла действительно может быть живой…
Страна: США, Китай, Канада
Студия: Huayi Brothers Media, Lakeshore Entertainment, Robert Simonds Company, The, Vertigo Entertainment
Продолжительность: 01:37:47
Перевод: Дублированный | Лицензия

Качество: BDRip 1080p
Видео: MPEG-4 AVC, 1920x800, 15.0 Mbit/s, 23.976 fps
Звук:
Аудио #01: 48 kHz, DTS, 5.1, 1510 Kbps | Лицензия | RUS |
Аудио #02: 48 kHz, AC3, 5.1, 640 Kbps | Лицензия | RUS |
Аудио #03: 48 kHz, AC3, 5.1, 640 Kbps | Оригинал | ENG |
Субтитры: Русские (full), английские

General
Unique ID : 204774509350826971991285147566787641262 (0x9A0E22CD00BEBF88887800E7D1EDBFAE)
Complete name : C:Video111The.Boy.2016.BDRip.1080p.ExKinoRay.mkv
Format : Matroska
Format version : Version 4 / Version 2
File size : 12.1 GiB
Duration : 1 h 37 min
Overall bit rate : 17.8 Mb/s
Movie name : The boy [url=//yarutor.org/tag/1/2016]2016[/url] from ExKinoRay
Encoded date : UTC 2018-05-15 19:35:22
Writing application : mkvmerge v7.3.0 ('Nouages') 64bit built on Oct 22 2014 18:53:34
Writing library : libebml v1.3.0 + libmatroska v1.4.1
Video
ID : 1
Format : AVC
Format/Info : Advanced Video Codec
Format profile : High@L4.1
Format settings : CABAC / 5 Ref Frames
Format settings, CABAC : Yes
Format settings, ReFrames : 5 frames
Codec ID : V_MPEG4/ISO/AVC
Duration : 1 h 37 min
Bit rate : 15.0 Mb/s
Width : 1 920 pixels
Height : 800 pixels
Display aspect ratio : 2.40:1
Frame rate mode : Constant
Frame rate : 23.976 (24000/1001) FPS
Color space : YUV
Chroma subsampling : 4:2:0
Bit depth : 8 bits
Scan type : Progressive
Bits/(Pixel*Frame) : 0.407
Stream size : 10.2 GiB (84%)
Writing library : x264 core 142 r2431+42 c69a006 tMod [8-bit@all X86]
Encoding settings : cabac=1 / ref=5 / deblock=1:0:0 / analyse=0x3:0x113 / me=umh / subme=10 / psy=1 / fade_compensate=0.00 / psy_rd=1.05:0.10 / mixed_ref=1 / me_range=48 / chroma_me=1 / trellis=2 / 8x8dct=1 / cqm=0 / deadzone=21,11 / fast_pskip=0 / chroma_qp_offset=-2 / threads=12 / lookahead_threads=1 / sliced_threads=0 / nr=0 / decimate=1 / interlaced=0 / bluray_compat=0 / constrained_intra=0 / fgo=0 / bframes=6 / b_pyramid=2 / b_adapt=2 / b_bias=0 / direct=3 / weightb=1 / open_gop=0 / weightp=2 / keyint=250 / keyint_min=23 / scenecut=40 / intra_refresh=0 / rc=2pass / mbtree=0 / bitrate=15000 / ratetol=2.0 / qcomp=0.70 / qpmin=0:0:0 / qpmax=69:69:69 / qpstep=4 / cplxblur=20.0 / qblur=0.5 / ip_ratio=1.40 / pb_ratio=1.30 / aq=2:1.00 / aq-sensitivity=10.00 / aq-factor=1.00:1.00:1.00 / aq2=0 / aq3=0
Language : English
Default : Yes
Forced : No
Audio #1
ID : 2
Format : DTS
Format/Info : Digital Theater Systems
Codec ID : A_DTS
Duration : 1 h 37 min
Bit rate mode : Constant
Bit rate : 1 509 kb/s
Channel(s) : 6 channels
Channel positions : Front: L C R, Side: L R, LFE
Sampling rate : 48.0 kHz
Frame rate : 93.750 FPS (512 SPF)
Bit depth : 24 bits
Compression mode : Lossy
Stream size : 1.03 GiB (8%)
Title : Dub [License]
Language : Russian
Default : Yes
Forced : Yes
Audio #2
ID : 3
Format : AC-3
Format/Info : Audio Coding 3
Codec ID : A_AC3
Duration : 1 h 37 min
Bit rate mode : Constant
Bit rate : 640 kb/s
Channel(s) : 6 channels
Channel positions : Front: L C R, Side: L R, LFE
Sampling rate : 48.0 kHz
Frame rate : 31.250 FPS (1536 SPF)
Bit depth : 16 bits
Compression mode : Lossy
Stream size : 447 MiB (4%)
Title : Dub [License]
Language : Russian
Service kind : Complete Main
Default : No
Forced : No
Audio #3
ID : 4
Format : AC-3
Format/Info : Audio Coding 3
Codec ID : A_AC3
Duration : 1 h 37 min
Bit rate mode : Constant
Bit rate : 640 kb/s
Channel(s) : 6 channels
Channel positions : Front: L C R, Side: L R, LFE
Sampling rate : 48.0 kHz
Frame rate : 31.250 FPS (1536 SPF)
Bit depth : 16 bits
Compression mode : Lossy
Stream size : 448 MiB (4%)
Title : Original
Language : English
Service kind : Complete Main
Default : No
Forced : No
Text #1
ID : 5
Format : UTF-8
Codec ID : S_TEXT/UTF8
Codec ID/Info : UTF-8 Plain Text
Duration : 1 h 29 min
Bit rate : 64 b/s
Count of elements : 801
Stream size : 42.6 KiB (0%)
Title : Full
Language : Russian
Default : No
Forced : No
Text #2
ID : 6
Format : UTF-8
Codec ID : S_TEXT/UTF8
Codec ID/Info : UTF-8 Plain Text
Duration : 1 h 27 min
Bit rate : 42 b/s
Count of elements : 1023
Stream size : 27.2 KiB (0%)
Title : Full
Language : English
Default : No
Forced : No
Text #3
ID : 7
Format : UTF-8
Codec ID : S_TEXT/UTF8
Codec ID/Info : UTF-8 Plain Text
Duration : 1 h 27 min
Bit rate : 46 b/s
Count of elements : 1094
Stream size : 29.6 KiB (0%)
Title : SDH
Language : English
Default : No
Forced : No
Text #4
ID : 8
Format : UTF-8
Codec ID : S_TEXT/UTF8
Codec ID/Info : UTF-8 Plain Text
Duration : 1 h 29 min
Bit rate : 56 b/s
Count of elements : 1176
Stream size : 37.4 KiB (0%)
Title : SDH Colored
Language : English
Default : No
Forced : No
Menu
00:00:00.000 : en:00:00:00.000
00:09:51.925 : en:00:09:51.925
00:19:23.204 : en:00:19:23.204
00:30:49.264 : en:00:30:49.264
00:44:00.304 : en:00:44:00.304
00:52:51.168 : en:00:52:51.168
01:04:22.609 : en:01:04:22.609
01:11:52.767 : en:01:11:52.767
01:21:46.151 : en:01:21:46.151
01:27:00.340 : en:01:27:00.340
Релиз от: Автор релиза: Rip by СелезеньS
Подпишись на меня, кликни по картинке :

Этот торрент недоступен для скачивания без регистрации, однако доступен по публичной magnet-ссылке (источники с публичных трекеров). Перед использованием ссылки прочтите, пожалуйста Пользовательское соглашение, а также как можно дольше оставайтесь на раздаче! Для того, чтобы скачать сам торрент-файл (который видит больше источников), а также для того, чтобы поблагодарить релизера, вам необходимо зарегистрироваться. Если регистрироваться лень - вы можете также попробовать скачать релиз по нашим партнерским ссылкам ниже. Кроме того, зарегистрированным пользователям не показывается всплывающая реклама при скачивании.

[underverse.me].t104232.torrent
Трекер: Зарегистрирован   [ 16.05.2018 07:01 ]  

Статус: * не проверено
Поблагодарили: пока никто не поблагодарил...
Тип торрента: публичный - доступные источники с открытых трекеров: 
Размер: 12,13 GB (занимает 2,77 DVDR, для записи нужно 3 болванки DVDR/RW)
 
 
Похожие темы
Форум Тема Автор Торрент Отв. Посл. сооб.
Зарубежное кино [DVDRip, Low-Res HDRip, и т.д.] Кукла / The boy (Крэйг Уилльям Макнейлл) [2015 г., ужасы, триллер, драма, WEB-DLRip] VO [LetEatBee] Паукан
5 | 0

0 | 787

26

30.08.2015 11:17

Зарубежное кино [DVDRip, Low-Res HDRip, и т.д.] Кукла / The Boy (Уильям Брент Белл / William Brent Bell) [2016 г., ужасы, триллер, детектив, BDRip] Dub 90ytr90
179 | 12

0 | 314

6

14.05.2018 18:13

Зарубежное кино [DVDRip, Low-Res HDRip, и т.д.] Кукла / The Boy (Уильям Брент Белл / William Brent Bell) [2016 г., ужасы, триллер, детектив, BDRip-AVC] Dub + Original (Eng) + Sub (Rus, Eng) 90ytr90
25 | 3

0 | 303

0

14.05.2018 18:15

Зарубежное кино [DVDRip, Low-Res HDRip, и т.д.] Кукла / The Boy (Уильям Брент Белл / William Brent Bell) [2016 г., ужасы, триллер, детектив, BDRip] Dub 90ytr90
38 | 3

0 | 328

2

14.05.2018 19:32

* Зарубежное кино [DVD / HDDVD / BD / Remux] Кукла / The Boy (Уильям Брент Белл) [ 2016 г., Ужасы, триллер, BDRemux 1080p] Dub + Original + Sub 90ytr90
7 | 3

0 | 160

2

16.05.2018 07:20

T Зарубежное кино [HDDVDRip / BDRip / WEB-DL / HDTV 1080/720р] Кукла / The Boy (Уильям Брент Белл / William Brent Bell) [2016 г., ужасы, триллер, BDRip 720p] Dub (iTunes) + Original (Eng) + Sub (Eng) 90ytr90
90 | 3

0 | 847

10

27.04.2016 18:40

T Зарубежное кино [HDDVDRip / BDRip / WEB-DL / HDTV 1080/720р] Кукла / The Boy (Уильям Брент Белл / William Brent Bell) [2016 г., ужасы, триллер, BDRip 1080p] Dub (iTunes) + Original (Eng) + Sub (Eng) 90ytr90
23 | 4

0 | 9774

9

27.04.2016 18:47

* Зарубежное кино [HDDVDRip / BDRip / WEB-DL / HDTV 1080/720р] Кукла / The Boy (Уильям Брент Белл) [ 2016 г., Ужасы, триллер, BDRip 720p] Dub + Original + Sub 90ytr90
35 | 4

0 | 160

1

16.05.2018 07:03


Яндекс.Метрика powered by Sphinx


В Н И М А Н И Е
Сайт не распространяет и не хранит электронные версии произведений, а лишь бесплатно и без коммерческой выгоды (не требуя взамен платы,
SMS и т.д.) предоставляет доступ к создаваемому пользователями каталогу ссылок на торрент-файлы, которые содержат только списки хеш-сумм.
Убедительная просьба с жалобами обращаться напрямую к пользователю, разместившему торрент файл.

Вверх