Loading...
Error

Город ангелов / City of Angels (Брэд Силберлинг /Brad Silberling) [1998 г., триллер, фэнтези, мелодрама, HDTVRip]

Статистика раздачи
Размер:  2,18 GB   |    Зарегистрирован:  7 лет 6 месяцев   |    Скачан:  0 раз

Полного источника не было: 5 лет 1 месяц

Сидов:  0  |  0 KB/s  ]   Личеров:  0  |  0 KB/s  ]

* - сиды/пиры с внешних источников

   
 
Автор Сообщение

GUree Пол:Муж

25-Фев-2010 18:33

Город ангелов / City of Angels


Год выпуска: 1998
Жанр: триллер, фэнтези, мелодрама
Страна: США
Режиссер: Брэд Силберлинг /Brad Silberling
В ролях: Мег Райан /Meg Ryan/, Николас Кэйдж /Nicolas Cage/, Деннис Франц /Dennis Franz/, Джоанна Мерлин /Joanna Merlin/, Колм Фиори /Colm Feore/

Сюжет фильма: Ангелы живут не на небесах. Они невидимо присутствуют рядом с людьми, прислушиваясь к их мыслям и направляя их поступки, подбадривая и утешая в минуты отчаяния. Но для них не существует мира человеческих чувств: вкуса черного кофе, боли порезанного пальца или любви. Поэтому некоторых из них так тянет к людям, и порой ангел теряет свои крылья и превращается в простого смертного. Что и происходит с героем фильма, которого увлекла на Землю любовь к женщине.

  • Мировая премьера: 10 апреля 1998
  • Российская премьера: 30 июля 1998, «Кармен-Премьер»




Личная оценка: 10 - всем советую

Качество видео: HDTVRip

Продолжительность: 01:54:23
Видео: кодек: x264, формат: mkv, размер кадра: 1024x432, битрейт: 2038 kbps
Аудио #1: язык: русский, перевод: дублированный (дубляж), кодек: AC3 5.1, битрейт: 384 kbps
Аудио #2: язык: английский, перевод: оригинал, кодек: AC3 2.0, битрейт: 256 kbps
Субтитры #1: тип: вшитые отключаемые, язык: русский, формат: S_TEXT/UTF8
Субтитры #2: тип: вшитые отключаемые, язык: английский, формат: S_TEXT/UTF8

Семпл 1 на multi-up
Семпл 2 на multi-up

Релиз группы:






General
Complete name : City.Of.Angels.1998.HDTVRip.AVC.mkv
Format : Matroska
File size : 2.18 GiB
Duration : 1h 54mn
Overall bit rate : 2 733 Kbps
Movie name : -=GUree=-
Encoded date : UTC 2010-02-25 01:19:38
Writing application : mkvmerge v3.2.0 ('Beginnings') built on Feb 12 2010 16:46:17
Writing library : libebml v0.7.9 + libmatroska v0.8.1

Video
ID : 1
Format : AVC
Format/Info : Advanced Video Codec
Format profile : High@L4.1
Format settings, CABAC : Yes
Format settings, ReFrames : 8 frames
Muxing mode : Container profile=Unknown@4.1
Codec ID : V_MPEG4/ISO/AVC
Duration : 1h 54mn
Bit rate : 2 039 Kbps
Nominal bit rate : 2 091 Kbps
Width : 1 024 pixels
Height : 432 pixels
Display aspect ratio : 2.35:1
Frame rate : 23.976 fps
Resolution : 8 bits
Colorimetry : 4:2:0
Scan type : Progressive
Bits/(Pixel*Frame) : 0.192
Stream size : 1.63 GiB (75%)
Writing library : x264 core 79 r1342kMod e8501ef
Encoding settings : cabac=1 / ref=8 / deblock=1:-2:-1 / analyse=0x3:0x113 / me=tesa / subme=10 / psy=1 / psy_rd=1.0:0.4 / mixed_ref=1 / me_range=32 / chroma_me=1 / trellis=2 / 8x8dct=1 / cqm=0 / deadzone=21,11 / chroma_qp_offset=-4 / threads=6 / nr=0 / decimate=0 / mbaff=0 / constrained_intra=0 / bframes=6 / b_pyramid=0 / b_adapt=2 / b_bias=0 / direct=3 / wpredb=1 / wpredp=2 / keyint=250 / keyint_min=25 / scenecut=40 / rc_lookahead=60 / rc=2pass / mbtree=1 / bitrate=2091 / ratetol=1.0 / qcomp=0.60 / qpmin=10 / qpmax=51 / qpstep=4 / cplxblur=20.0 / qblur=0.5 / vbv_maxrate=50000 / vbv_bufsize=50000 / ip_ratio=1.40 / aq=1:1.00
Language : English

Audio #1
ID : 2
Format : AC-3
Format/Info : Audio Coding 3
Codec ID : A_AC3
Duration : 1h 54mn
Bit rate mode : Constant
Bit rate : 384 Kbps
Channel(s) : 6 channels
Channel positions : Front: L C R, Surround: L R, LFE
Sampling rate : 48.0 KHz
Stream size : 314 MiB (14%)
Title : AC3 5.1 384Kb/s
Language : Russian

Audio #2
ID : 5
Format : AC-3
Format/Info : Audio Coding 3
Codec ID : A_AC3
Duration : 1h 54mn
Bit rate mode : Constant
Bit rate : 256 Kbps
Channel(s) : 2 channels
Channel positions : L R
Sampling rate : 48.0 KHz
Stream size : 209 MiB (9%)
Title : AC3 2.0 256Kb/s
Language : English

Text #1
ID : 3
Format : UTF-8
Codec ID : S_TEXT/UTF8
Codec ID/Info : UTF-8 Plain Text
Language : Russian

Text #2
ID : 4
Format : UTF-8
Codec ID : S_TEXT/UTF8
Codec ID/Info : UTF-8 Plain Text
Language : English

Этот торрент недоступен для скачивания без регистрации, однако доступен по публичной magnet-ссылке (источники с публичных трекеров). Перед использованием ссылки прочтите, пожалуйста Пользовательское соглашение, а также как можно дольше оставайтесь на раздаче! Для того, чтобы скачать сам торрент-файл (который видит больше источников), а также для того, чтобы поблагодарить релизера, вам необходимо зарегистрироваться. Если регистрироваться лень - вы можете также попробовать скачать релиз по нашим партнерским ссылкам ниже.

[underverse.su].t9150.torrent
Трекер: Зарегистрирован   [ 25.02.2010 18:33 ]  

Статус: проверено (by GUree at 25.02.2010 19:43)
Поблагодарили: пока никто не поблагодарил...
Тип торрента: публичный - доступные источники с открытых трекеров: 
Размер: 2,18 GB (занимает 1/2 DVDR, для записи нужно 1 болванка DVDR/RW)
 
 
Похожие темы
Форум Тема Автор Торрент Отв. Посл. сооб.
Зарубежное кино [DVD / HDDVD / BD / Remux] Город ангелов / City of Angels (Брэд Силберлинг / Brad Silberling) [1998 г., Германия, США, Фэнтези, драма, мелодрама, Blu-Ray disc 1080p] Dub + Original eng + Sub (Rus, Eng) uzi2009
3 | 0

1 | 654

4

25.01.2014 06:25

* Архив Город ангелов / City of Angels (Брэд Силберлинг) [драма, фэнтези] DVDRip БогDan

3 | 1118

29.08.2010 23:52



Последний раз редактировалось: GUree (25.05.2010 15:38), всего редактировалось 3 раз(а)

БогDan Пол:Муж

25-Фев-2010 19:44

Хороший фильм!

ZondeR Пол:Муж

26-Фев-2010 07:18

Фильм супер, да и саундтрек к нему отличный :good: (OST) VA - City of Angels / Город Ангелов (1998) [MP3, 320kbps CBR]

sexfuck 

21-Май-2011 04:38

где вы

Яндекс.Метрика powered by Sphinx


В Н И М А Н И Е
Сайт не распространяет и не хранит электронные версии произведений, а лишь бесплатно и без коммерческой выгоды (не требуя взамен платы,
SMS и т.д.) предоставляет доступ к создаваемому пользователями каталогу ссылок на торрент-файлы, которые содержат только списки хеш-сумм.
Убедительная просьба с жалобами обращаться напрямую к пользователю, разместившему торрент файл.

Вверх