Loading...
Error

Бэтмен: Готэм в газовом свете / Batman: Gotham by Gaslight (Сэм Лью) [2018 г., мультфильм, фэнтези, боевик, криминал, детектив, HDRip] MVO (Jaskier)

Статистика раздачи
Размер:  1,37 GB   |    Зарегистрирован:  4 месяца 8 дней   |    Скачан:  14 раз
Сидов:  1  |  0 KB/s  ]   Личеров:  0  |  0 KB/s  ]

* - сиды/пиры с внешних источников

   
 
Автор Сообщение

90ytr90 

13-Апр-2018 03:46

Бэтмен: Готэм в газовом свете / Batman: Gotham by Gaslight


Название: Бэтмен: Готэм в газовом свете
Оригинальное название: Batman: Gotham by Gaslight
Год выхода: 2018
Жанр: мультфильм, фэнтези, боевик, криминал, детектив
Режиссёр: Сэм Лью
Актеры фильма: Дженнифер Карпентер, Тара Стронг, Брюс Гринвуд, Скотт Гордон-Паттерсон, Кари Уорер, Грей ДеЛайл, Джон Ди Маджио, Энтони Хэд, Линкольн Мелчер, Юрий Ловенталь

Описание:
В альтернативной истории в 1889 году Брюс Уэйн возвращается в Готэм из своего путешествия по Европе. Город викторианской эпохи всё так же привлекает преступников. Череда загадочных и зверских убийств заставляет жителей подозревать, что убийца — Бэтмен. Тёмному Рыцарю бросает вызов самый известный маньяк XIX века — Джек-потрошитель.



Страна: США
Продолжительность: 01:17:04
Перевод: Профессиональный многоголосый закадровый (студия Jaskier)

Кодек: XviD | Avi
Качество: HDRip
Видео: ~ 2156 kbps, 720x400, 23.976 fps
Аудио Rus: AC3, 384 kb/s (6 ch)
Субтитры: отсутствуют
Без рекламы.
Общее
Полное имя : D:ЯскъерBatman.Gotham.by.Gaslight.2018.HDRip.Jaskier.avi
Формат : AVI
Формат/Информация : Audio Video Interleave
Размер файла : 1,37 Гбайт
Продолжительность : 1 ч. 17 м.
Общий поток : 2549 Кбит/сек
Программа кодирования : VirtualDubMod 1.5.10.3 | www.virtualdub-fr.org || (build 2550/release)
Библиотека кодирования : VirtualDubMod build 2550/release

Видео
Идентификатор : 0
Формат : MPEG-4 Visual
Профиль формата : Advanced Simple@L5
Настройки формата : BVOP1 / Custom Matrix
Параметр BVOP формата : 1
Параметр QPel формата : Нет
Параметр GMC формата : Без точки перехода
Параметр матрицы формата : Выборочная
Идентификатор кодека : XVID
Идентификатор кодека/Подсказка : XviD
Продолжительность : 1 ч. 17 м.
Битрейт : 2156 Кбит/сек
Ширина : 720 пикселей
Высота : 400 пикселей
Соотношение сторон : 16:9
Частота кадров : 23,976 (24000/1001) кадра/сек
Цветовое пространство : YUV
Субдискретизация насыщенности : 4:2:0
Битовая глубина : 8 бит
Тип развёртки : Прогрессивная
Метод сжатия : С потерями
Бит/(Пиксели*Кадры) : 0.312
Размер потока : 1,16 Гбайт (85%)
Библиотека кодирования : XviD 73

Аудио
Идентификатор : 1
Формат : AC-3
Формат/Информация : Audio Coding 3
Идентификатор кодека : 2000
Продолжительность : 1 ч. 17 м.
Вид битрейта : Постоянный
Битрейт : 384 Кбит/сек
Каналы : 6 каналов
Расположение каналов : Front: L C R, Side: L R, LFE
Частота : 48,0 КГц
Частота кадров : 31,250 кадров/сек (1536 SPF)
Битовая глубина : 16 бит
Метод сжатия : С потерями
Размер потока : 212 Мбайт (15%)
Выравнивание : Разделение по промежуткам
Продолжительность промежутка : 42 мс. (1,00 видеокадр)
Время предзагрузки промежутка : 500 мс.

Этот торрент недоступен для скачивания без регистрации, однако доступен по публичной magnet-ссылке (источники с публичных трекеров). Перед использованием ссылки прочтите, пожалуйста Пользовательское соглашение, а также как можно дольше оставайтесь на раздаче! Для того, чтобы скачать сам торрент-файл (который видит больше источников), а также для того, чтобы поблагодарить релизера, вам необходимо зарегистрироваться. Если регистрироваться лень - вы можете также попробовать скачать релиз по нашим партнерским ссылкам ниже. Кроме того, зарегистрированным пользователям не показывается всплывающая реклама при скачивании.

[underverse.me].t102104.torrent
Трекер: Зарегистрирован   [ 13.04.2018 03:46 ]  

Статус: * не проверено
Поблагодарили: 1 человек
Тип торрента: публичный - доступные источники с открытых трекеров: 
Размер: 1,37 GB (занимает 0,31 DVDR, для записи нужно 1 болванка DVDR/RW)
 
 
Похожие темы
Форум Тема Автор Торрент Отв. Посл. сооб.
* Мультфильмы [HDDVDRip / BDRip / WEB-DL / HDTV 1080/720р] Бэтмен: Готэм в газовом свете / Batman: Gotham by Gaslight (Сэм Лью) [2018 г., мультфильм, фэнтези, боевик, криминал, детектив, BDRip 1080p] MVO (Jaskier) + Original (Eng) + Sub (Rus, Eng) 90ytr90
14 | 0

0 | 221

6

13.04.2018 03:50

* Мультфильмы [HDDVDRip / BDRip / WEB-DL / HDTV 1080/720р] Бэтмен: Готэм в газовом свете / Batman: Gotham by Gaslight (Сэм Лью) [2018 г., мультфильм, фэнтези, боевик, криминал, детектив, BDRip 720p] MVO (Jaskier) + Original (Eng) + Sub (Rus, Eng) 90ytr90
14 | 0

0 | 217

9

13.04.2018 03:50

Архив (мультфильмы) Бэтмен: Год первый / Batman: Year One (Сэм Лью, Лоурен Монтгомери) [2011 г., мультфильм, фантастика, боевик, приключения, DVDRip] МУХА~
0 | 0

4 | 2121

15

31.01.2018 17:07


Яндекс.Метрика powered by Sphinx


В Н И М А Н И Е
Сайт не распространяет и не хранит электронные версии произведений, а лишь бесплатно и без коммерческой выгоды (не требуя взамен платы,
SMS и т.д.) предоставляет доступ к создаваемому пользователями каталогу ссылок на торрент-файлы, которые содержат только списки хеш-сумм.
Убедительная просьба с жалобами обращаться напрямую к пользователю, разместившему торрент файл.

Вверх