Loading...
Error

Черная молния (Александр Войтинский, Дмитрий Киселев) [2009 г., фантастика, боевик, комедия, мелодрама, приключения, BDRip]

Статистика раздачи
Размер:  2,18 GB   |    Зарегистрирован:  6 лет 9 месяцев   |    Скачан:  6 раз

Полного источника не было: 2 года 5 месяцев

Сидов:  0  |  0 KB/s  ]   Личеров:  0  |  0 KB/s  ]

* - сиды/пиры с внешних источников

   
 
Автор Сообщение

GUree Пол:Муж

22-Фев-2010 19:48

Черная молния


Год выпуска: 2009
Жанр: фантастика, боевик, комедия, мелодрама, приключения
Страна: Россия
Режиссер: Александр Войтинский, Дмитрий Киселев
В ролях: Григорий Добрыгин, Валерий Золотухин, Сергей Гармаш, Иван Жидков, Виктор Вержбицкий, Екатерина Старшова, Михаил Ефремов, Игорь Савочкин, Екатерина Вилкова, Андрей Назимо

Сюжет фильма: Действие картины разворачивается в наши дни, где главный герой, двадцатилетний Дима Майков, получает в подарок от отца старенькую «Волгу-21» и внезапно обнаруживает, что его машина летает, как настоящий истребитель. Герой бесцельно парит над столичными пробками и беззаботно наслаждается полетами, пока однажды беда не заставляет его по-другому взглянуть на мир.

Теперь ему предстоит встать на защиту тех, кем он дорожит, и сразиться со Злом в небе над новогодней Москвой.


  • Мировая премьера: 28 декабря 2009
  • Российская премьера: 31 декабря 2009, «UPI»


Личная оценка: 10 - всем советую

Качество видео: BDRip

Продолжительность: 01:46:06
Видео: кодек: x264, формат: mkv, размер кадра: 1024x448, битрейт: 2438 kbps
Аудио: язык: русский, перевод: оригинал, кодек: AC3 5.1, битрейт: 448 kbps

Семпл 1 на multi-up; Семпл 1 на dump
Семпл 2 на multi-up; Семпл 2 на dump

Релиз группы:












General
Complete name : CHornya_molniya.2009.BDRip.AVC.mkv
Format : Matroska
File size : 2.18 GiB
Duration : 1h 46mn
Overall bit rate : 2 945 Kbps
Movie name : -=GUree=-
Encoded date : UTC 2010-02-22 19:00:39
Writing application : mkvmerge v3.2.0 ('Beginnings') built on Feb 12 2010 16:46:17
Writing library : libebml v0.7.9 + libmatroska v0.8.1

Video
ID : 1
Format : AVC
Format/Info : Advanced Video Codec
Format profile : High@L4.1
Format settings, CABAC : Yes
Format settings, ReFrames : 8 frames
Muxing mode : Container profile=Unknown@4.1
Codec ID : V_MPEG4/ISO/AVC
Duration : 1h 45mn
Bit rate : 2 439 Kbps
Nominal bit rate : 2 496 Kbps
Width : 1 024 pixels
Height : 448 pixels
Display aspect ratio : 2.25:1
Frame rate : 23.976 fps
Resolution : 8 bits
Colorimetry : 4:2:0
Scan type : Progressive
Bits/(Pixel*Frame) : 0.222
Stream size : 1.81 GiB (83%)
Writing library : x264 core 79 r1342kMod e8501ef
Encoding settings : cabac=1 / ref=8 / deblock=1:-2:-1 / analyse=0x3:0x113 / me=tesa / subme=10 / psy=1 / psy_rd=1.0:0.4 / mixed_ref=1 / me_range=32 / chroma_me=1 / trellis=2 / 8x8dct=1 / cqm=0 / deadzone=21,11 / chroma_qp_offset=-4 / threads=6 / nr=0 / decimate=0 / mbaff=0 / constrained_intra=0 / bframes=6 / b_pyramid=0 / b_adapt=2 / b_bias=0 / direct=3 / wpredb=1 / wpredp=2 / keyint=250 / keyint_min=25 / scenecut=40 / rc_lookahead=60 / rc=2pass / mbtree=1 / bitrate=2496 / ratetol=1.0 / qcomp=0.60 / qpmin=10 / qpmax=51 / qpstep=4 / cplxblur=20.0 / qblur=0.5 / vbv_maxrate=50000 / vbv_bufsize=50000 / ip_ratio=1.40 / aq=1:1.00

Audio
ID : 2
Format : AC-3
Format/Info : Audio Coding 3
Codec ID : A_AC3
Duration : 1h 46mn
Bit rate mode : Constant
Bit rate : 448 Kbps
Channel(s) : 6 channels
Channel positions : Front: L C R, Surround: L R, LFE
Sampling rate : 48.0 KHz
Stream size : 340 MiB (15%)

Этот торрент недоступен для скачивания без регистрации, однако доступен по публичной magnet-ссылке (источники с публичных трекеров). Перед использованием ссылки прочтите, пожалуйста Пользовательское соглашение, а также как можно дольше оставайтесь на раздаче! Для того, чтобы скачать сам торрент-файл (который видит больше источников), а также для того, чтобы поблагодарить релизера, вам необходимо зарегистрироваться. Если регистрироваться лень - вы можете также попробовать скачать релиз по нашим партнерским ссылкам ниже.

[underverse.su].t9108.torrent
Трекер: Зарегистрирован   [ 22.02.2010 19:48 ]  

Статус: проверено (by GUree at 22.02.2010 19:55)
Поблагодарили: 2 человека
Тип торрента: публичный - доступные источники с открытых трекеров: 
Размер: 2,18 GB (занимает 1/2 DVDR, для записи нужно 1 болванка DVDR/RW)
 
 
Похожие темы
Форум Тема Автор Торрент Отв. Посл. сооб.
Наше кино [DVDRip, Low-Res HDRip, и т.д.] Черная молния (Александр Войтинский, Дмитрий Киселев) [2009 г., фантастика, боевик, приключения, DVDRip] maddd
2 | 0

9 | 2296

161

27.02.2010 10:11

* Наше кино [DVD / HDDVD / BD / Remux] Черная молния (Александр Войтинский, Дмитрий Киселев) [2009, Россия, фантастика, боевик, комедия, мелодрама, приключения, Blu-ray disc 1080p] TERRAN

0 | 606

24.05.2013 18:46

Архив Черная молния (Александр Войтинский, Дмитрий Киселев) [2009 г., фантастика, боевик, комедия, мелодрама, приключения, BDRip] Zver-Mix
0 | 0

1 | 1593

6

16.06.2011 08:08

Архив Черная молния / Black lightning [RePack] [2010 г., Arcade / Racing (Cars) / 3D ] RUS GanibalKing
4 | 1

8 | 1023

5

12.11.2010 23:48

Архив Черная молния / Black lightning [2010 г., Arcade / Racing (Cars) / 3D ] [L] RUS GanibalKing
0 | 0

3 | 1031

3

17.02.2011 14:46


Яндекс.Метрика powered by Sphinx


В Н И М А Н И Е
Сайт не распространяет и не хранит электронные версии произведений, а лишь бесплатно и без коммерческой выгоды (не требуя взамен платы,
SMS и т.д.) предоставляет доступ к создаваемому пользователями каталогу ссылок на торрент-файлы, которые содержат только списки хеш-сумм.
Убедительная просьба с жалобами обращаться напрямую к пользователю, разместившему торрент файл.

Вверх